[ Сегодня на трекере фрилич! Идет свободное скачивание без начисления Download ]

Эверест / Everest (Бальтасар Кормакур / Baltasar Kormakur) [2015 г., триллер, драма, приключения, WEBRip] Dub [Чистый звук] + Original (Eng) + Sub (Kor)

 

Создавать темы 07-Ноя-2015 06:04

--Эверест / Everest--«Самое опасное место на планете»-- Производство: США, Великобритания, Исландия / Universal Pictures, Walden Media, Cross Creek Pictures, Working Title Films
Год выпуска: 2015 г.
Жанр: триллер, драма, приключения
Продолжительность: 02:00:54--Мировая премьера: 2 сентября 2015
Российская премьера: 24 сентября 2015, «UPI»--Перевод: Профессиональный (полное дублирование) [Чистый звук]
Оригинальный аудиопоток: английский--Режиссер: Бальтасар Кормакур / Baltasar Kormakur--В ролях: Джейсон Кларк, Джош Бролин, Джон Хоукс, Робин Райт, Эмили Уотсон, Кира Найтли, Сэм Уортингтон, Джейк Джилленхол, Томас М. Райт, Мартин Хендерсон--Описание: Эверест — великая неприступная гора, покорить вершину которой мечтают многие профессиональные скалолазы. Одна из экспедиций на ее вершину закончилась настоящей трагедией, однако этот факт не останавливает отважных альпинистов.
Опытный инструктор Роб Холл, собрав группу из лучших альпинистов, собирается совершить восхождение на самую высокую вершину планеты. Все эти люди полны мужества и отваги и они не остановятся ни перед чем, пока не поднимутся на вершину Эвереста. Но даже если эта гора покорится им, смогут ли они вернуться обратно живыми и невредимыми?..-- --Качество видео: WEBRip
Контейнер: AVI
Видео кодек: XviD
Аудио кодек: AC3
Видео: 720x304 (2.37:1), 29.970 fps, XviD build 50 ~1963 kbps avg, 0.30 bit/pixel
Аудио 1: 48 kHz, AC3 Dolby Digital, 2/0 (L,R) ch, ~192 kbps RUS
Аудио 2: 48 kHz, AC3 Dolby Digital, 2/0 (L,R) ch, ~256 kbps ENG
Cубтитры: Присутствуют вшитые корейские субтитры.

Media Info

Общее
Полное имя : H:\Torrent2\E8ere7t.2015.D.HDTVRip.2100MB.avi
Формат : AVI
Формат/Информация : Audio Video Interleave
Профиль формата : OpenDML
Размер файла : 2,05 Гбайт
Продолжительность : 2 ч. 0 м.
Общий поток : 2433 Кбит/сек
Программа кодирования : VirtualDubMod 1.5.10.3 | www.virtualdub-fr.org || (build 2550/release)
Библиотека кодирования : VirtualDubMod build 2550/releaseВидео
Идентификатор : 0
Формат : MPEG-4 Visual
Профиль формата : Advanced [email protected]
Параметр BVOP формата : 2
Параметр QPel формата : Нет
Параметр GMC формата : Без точки перехода
Параметр матрицы формата : Default (MPEG)
Идентификатор кодека : XVID
Идентификатор кодека/Подсказка : XviD
Продолжительность : 2 ч. 0 м.
Битрейт : 1963 Кбит/сек
Ширина : 720 пикселей
Высота : 304 пикселя
Соотношение сторон : 2,35:1
Частота кадров : 29,970 кадров/сек
Цветовое пространство : YUV
Субдискретизация насыщенности : 4:2:0
Битовая глубина : 8 бит
Тип развёртки : Прогрессивная
Метод сжатия : С потерями
Бит/(Пиксели*Кадры) : 0.299
Размер потока : 1,66 Гбайт (81%)
Библиотека кодирования : XviD 1.2.1 (UTC 2008-12-04)Аудио #1
Идентификатор : 1
Формат : AC-3
Формат/Информация : Audio Coding 3
Расширение режима : CM (complete main)
Параметр Endianness формата : Big
Идентификатор кодека : 2000
Продолжительность : 2 ч. 0 м.
Вид битрейта : Постоянный
Битрейт : 192 Кбит/сек
Каналы : 2 канала
Расположение каналов : Front: L R
Частота : 48,0 КГц
Метод сжатия : С потерями
Размер потока : 166 Мбайт (8%)
Выравнивание : Разделение по промежуткам
Продолжительность промежутка : 33 мс. (1,00 видеокадр)
Время предзагрузки промежутка : 500 мс.Аудио #2
Идентификатор : 2
Формат : AC-3
Формат/Информация : Audio Coding 3
Расширение режима : CM (complete main)
Параметр Endianness формата : Big
Идентификатор кодека : 2000
Продолжительность : 2 ч. 0 м.
Вид битрейта : Постоянный
Битрейт : 256 Кбит/сек
Каналы : 2 канала
Расположение каналов : Front: L R
Частота : 48,0 КГц
Метод сжатия : С потерями
Размер потока : 221 Мбайт (11%)
Выравнивание : Разделение по промежуткам
Продолжительность промежутка : 33 мс. (1,00 видеокадр)
Время предзагрузки промежутка : 500 мс.

Скриншоты

Трейлер
Яндекс.Метрика
Рейтинг@Mail.ru