[ Сегодня на трекере фрилич! Идет свободное скачивание без начисления Download ]

День Зверя / El Dia De La Bestia (Алекс Де Ла Иглесиа / Alex de la Iglesia) [1995, Испания, Комедия, ужасы, BDRemux 1080p] AVO (Антон Алексеев) + Original Spa

 

Создавать темы 05-Ноя-2015 15:11

--День Зверя / El Dia De La Bestia-- Страна: Испания
Жанр: Комедия, ужасы
Год выпуска: 1995
Продолжительность: 01:43:46
Перевод: Авторский (одноголосый закадровый) Антон Алексеев
Cубтитры: нет
Оригинальная аудиодорожка: испанский
Режиссер: Алекс Де Ла Иглесиа / Alex de la Iglesia
В ролях: Алекс Ангуло, Армандо Де Разза, Сантьяго Сегура, Ререле Павез, Натали Сесена-Описание:
Священник католической церкви раскрывает код, который является прямой подсказкой к тому, когда на Землю придёт Антихрист. Рассказав своему церковному боссу об этом, он получает в его лице союзника. Но вот незадача — как только его шеф поднялся, чтобы отправиться вместе со своим верным послушником, на него свалился гигантский крест, стоявший над алтарём. Настоятель был, естественно, раздавлен насмерть. Тогда его ученик, которого звать падре Ангел, в одиночку берётся за разгадку того, кто же этот сын Дьявола.
http://www.imdb.com/title/tt0112922/
Сэмпл: http://multi-up.com/1074308
Тип релиза: BDRemux 1080p
Контейнер: MKV
Видео: 1920x1080 (16:9), 24.000 fps, AVC, ~22.1 Mbps, 0.444 bits/pixel
Аудио: Russian, 48.0 KHz, AC3, 2 ch, 192 Kbps
Аудио 2: Spanish, DTS-HD MA / 5.1 / 48 kHz / 2132 kbps / 16-bit (DTS Core: 5.1 / 48 kHz / 1509 kbps / 16-bit)
Аудио 3: Spanish, 48.0 KHz, AC3, 2 ch, 192 Kbps - Comentarios del Director

MediaInfo

General
Unique ID : 210646750916830003263667804516658536379 (0x9E7916A9C3087C6FA189BF8FA4715FBB)
Complete name : C:\Torrent\El Dia de la Bestia 1995 BDRemux.mkv
Format : Matroska
Format version : Version 4 / Version 2
File size : 17.8 GiB
Duration : 1h 43mn
Overall bit rate mode : Variable
Overall bit rate : 24.5 Mbps
Encoded date : UTC 2015-11-05 07:27:33
Writing application : mkvmerge v7.4.0 ('Circles') 64bit built on Dec 12 2014 12:19:56
Writing library : libebml v1.3.0 + libmatroska v1.4.1
Attachements : cover.jpg
_STATISTICS_WRITING_APP : mkvmerge v7.4.0 ('Circles') 64bit built on Dec 12 2014 12:19:56
_STATISTICS_WRITING_DATE_UTC : 2015-11-05 07:27:33
_STATISTICS_TAGS : BPS DURATION NUMBER_OF_FRAMES NUMBER_OF_BYTES
DURATION : 01:43:44.224000000
NUMBER_OF_FRAMES : 194507
NUMBER_OF_BYTES : 149381376
Video
ID : 1
Format : AVC
Format/Info : Advanced Video Codec
Format profile : [email protected]
Format settings, CABAC : Yes
Format settings, ReFrames : 4 frames
Codec ID : V_MPEG4/ISO/AVC
Duration : 1h 43mn
Bit rate mode : Variable
Maximum bit rate : 34.0 Mbps
Width : 1 920 pixels
Height : 1 080 pixels
Display aspect ratio : 16:9
Frame rate mode : Constant
Frame rate : 24.000 fps
Standard : NTSC
Color space : YUV
Chroma subsampling : 4:2:0
Bit depth : 8 bits
Scan type : Progressive
Language : English
Default : No
Forced : No
Color primaries : BT.709
Transfer characteristics : BT.709
Matrix coefficients : BT.709
_STATISTICS_WRITING_APP : mkvmerge v7.4.0 ('Circles') 64bit built on Dec 12 2014 12:19:56
_STATISTICS_WRITING_DATE_UTC : 2015-11-05 07:27:33
_STATISTICS_TAGS : BPS DURATION NUMBER_OF_FRAMES NUMBER_OF_BYTES
DURATION : 01:43:46.042000000
NUMBER_OF_FRAMES : 149425
NUMBER_OF_BYTES : 17120230052
Audio #1
ID : 2
Format : AC-3
Format/Info : Audio Coding 3
Mode extension : CM (complete main)
Format settings, Endianness : Big
Codec ID : A_AC3
Duration : 1h 43mn
Bit rate mode : Constant
Bit rate : 192 Kbps
Channel(s) : 2 channels
Channel positions : Front: L R
Sampling rate : 48.0 KHz
Bit depth : 16 bits
Compression mode : Lossy
Stream size : 143 MiB (1%)
Language : Russian
Default : Yes
Forced : No
_STATISTICS_WRITING_APP : mkvmerge v7.4.0 ('Circles') 64bit built on Dec 12 2014 12:19:56
_STATISTICS_WRITING_DATE_UTC : 2015-11-05 07:27:33
_STATISTICS_TAGS : BPS DURATION NUMBER_OF_FRAMES NUMBER_OF_BYTES
DURATION : 01:43:45.942000000
NUMBER_OF_FRAMES : 583682
NUMBER_OF_BYTES : 1658329436
Audio #2
ID : 3
Format : DTS
Format/Info : Digital Theater Systems
Format profile : MA / Core
Mode : 16
Format settings, Endianness : Big
Codec ID : A_DTS
Duration : 1h 43mn
Bit rate mode : Variable
Bit rate : Unknown / 1 509 Kbps
Channel(s) : 6 channels
Channel positions : Front: L C R, Side: L R, LFE
Sampling rate : 48.0 KHz
Bit depth : 16 bits
Compression mode : Lossless / Lossy
Language : Spanish
Default : No
Forced : No
_STATISTICS_WRITING_APP : mkvmerge v7.4.0 ('Circles') 64bit built on Dec 12 2014 12:19:56
_STATISTICS_WRITING_DATE_UTC : 2015-11-05 07:27:33
_STATISTICS_TAGS : BPS DURATION NUMBER_OF_FRAMES NUMBER_OF_BYTES
DURATION : 01:43:46.016000000
NUMBER_OF_FRAMES : 194563
NUMBER_OF_BYTES : 149424384
Audio #3
ID : 4
Format : AC-3
Format/Info : Audio Coding 3
Mode extension : CM (complete main)
Format settings, Endianness : Big
Codec ID : A_AC3
Duration : 1h 43mn
Bit rate mode : Constant
Bit rate : 192 Kbps
Channel(s) : 2 channels
Channel positions : Front: L R
Sampling rate : 48.0 KHz
Bit depth : 16 bits
Compression mode : Lossy
Stream size : 143 MiB (1%)
Title : Comentarios del Director
Language : Spanish
Default : No
Forced : No
Menu
00:00:00.000 : en:Chapter 01
00:02:49.250 : en:Chapter 02
00:09:13.250 : en:Chapter 03
00:12:12.250 : en:Chapter 04
00:16:36.916 : en:Chapter 05
00:21:20.208 : en:Chapter 06
00:24:33.833 : en:Chapter 07
00:32:33.875 : en:Chapter 08
00:41:01.583 : en:Chapter 09
00:51:49.916 : en:Chapter 10
00:55:22.875 : en:Chapter 11
01:00:09.166 : en:Chapter 12
01:06:40.250 : en:Chapter 13
01:10:38.541 : en:Chapter 14
01:15:34.583 : en:Chapter 15
01:20:25.666 : en:Chapter 16
01:28:01.250 : en:Chapter 17
01:32:56.125 : en:Chapter 18
01:38:31.291 : en:Chapter 19
01:40:43.416 : en:Chapter 20

Скриншоты:

Яндекс.Метрика
Рейтинг@Mail.ru