[ Сегодня на трекере фрилич! Идет свободное скачивание без начисления Download ]

Сыграй это ещё раз, Сэм! / Play It Again, Sam (Херберт Росс / Herbert Ross) [1972., США, Мелодрама, Комедия, HDTV 1080i] DVO + Original (ENG) + SUB (ENG)

 

Создавать темы 05-Ноя-2015 02:53

--Play It Again, Sam-- Страна: США
Год выпуска: 1972
Жанр: Мелодрама, Комедия
Продолжительность: 1:22:05
Перевод: Профессиональный (двухголосый закадровый)
Оригинальная аудиодорожка: Английская
Субтитры: Английские
Режиссер: Херберт Росс / Herbert Ross
Производство: APJAC Productions / Paramount Pictures / Rollins-Joffe Productions
В ролях: Вуди Аллен (Woody Allen), Дайан Китон (Diane Keaton), Тони Робертс (Tony Roberts), Джерри Лэси (Jerry Lacy), Сьюзен Энспак (Susan Anspach), Дженнифер Солт (Jennifer Salt), Джой Банг (Joy Bang), Вива (Viva), Сюзанна Зенор (Susanne Zenor), Диана Девила (Diana Davila) и другие.
Описание: Аллена, замкнутого и чудаковатого кинокритика, бросает жена. Нашего впечатлительного героя начинает посещать призрак Хамфри Богарта, исполнителя главной роли в легендарной ленте «Касабланка» (название фильма «Сыграй это снова, Сэм» — знаменитая реплика из классической картины).
Дружелюбная галлюцинация дает нашему герою ценные советы по части поведения с женщинами. Но амурные похождения горе-любовника оканчиваются полным провалом…
Дополнительная информация: Сведение звука, - Softernet.
Качество: HDTV
Контейнер: MKV
Видео: MPEG-4 AVC / 7755 kbps / 1080i / 25.000 fps / 16:9
Аудио 1: Russian / Dolby AC3 / 2.0 / 44 kHz / 192 kbps / 16 bit => [DVO]
Аудио 2: English / Dolby AC3 / 2.0 / 48 kHz / 192 kbps / 16 bit

MediaInfo

Формат : Matroska
Версия формата : Version 4 / Version 2
Размер файла : 4,76 Гбайт
Продолжительность : 1 ч. 22 м.
Общий поток : 8304 Кбит/сек
Дата кодирования : UTC 2015-11-02 21:56:50
Программа кодирования : mkvmerge v8.5.1 ('Where you lead I will follow') 64bit
Библиотека кодирования : libebml v1.3.3 + libmatroska v1.4.4
DURATION : 01:21:59.192000000
NUMBER_OF_FRAMES : 1237
NUMBER_OF_BYTES : 50992
_STATISTICS_WRITING_APP : mkvmerge v8.5.1 ('Where you lead I will follow') 64bit
_STATISTICS_WRITING_DATE_UTC : 2015-11-02 21:56:50
_STATISTICS_TAGS : BPS DURATION NUMBER_OF_FRAMES NUMBER_OF_BYTES
Видео
Идентификатор : 1
Формат : AVC
Формат/Информация : Advanced Video Codec
Профиль формата : [email protected]
Параметр CABAC формата : Да
Параметр ReFrames формата : 4 кадра
Параметр GOP формата : M=4, N=12
Идентификатор кодека : V_MPEG4/ISO/AVC
Продолжительность : 1 ч. 22 м.
Битрейт : 7755 Кбит/сек
Ширина : 1920 пикселей
Высота : 1080 пикселей
Соотношение сторон : 16:9
Режим частоты кадров : Постоянный
Частота кадров : 25,000 кадров/сек
Цветовое пространство : YUV
Субдискретизация насыщенности : 4:2:0
Битовая глубина : 8 бит
Тип развёртки : Чересстрочная
Порядок развёртки : Верхнее поле первое
Бит/(Пиксели*Кадры) : 0.150
Размер потока : 4,45 Гбайт (93%)
Default : Нет
Forced : Нет
Цветовой диапазон : Limited
Основные цвета : BT.709
Характеристики трансфера : BT.709
Коэффициенты матрицы : BT.709
Аудио #1
Идентификатор : 2
Формат : AC-3
Формат/Информация : Audio Coding 3
Расширение режима : CM (complete main)
Параметр Endianness формата : Big
Идентификатор кодека : A_AC3
Продолжительность : 1 ч. 22 м.
Вид битрейта : Постоянный
Битрейт : 192 Кбит/сек
Каналы : 2 канала
Расположение каналов : Front: L R
Частота : 44,1 КГц
Метод сжатия : С потерями
Размер потока : 113 Мбайт (2%)
Заголовок : DVO
Язык : Russian
Default : Нет
Forced : Нет
Аудио #2
Идентификатор : 3
Формат : AC-3
Формат/Информация : Audio Coding 3
Профиль формата : Dolby Digital
Расширение режима : CM (complete main)
Параметр Endianness формата : Big
Идентификатор кодека : A_AC3
Продолжительность : 1 ч. 22 м.
Вид битрейта : Постоянный
Битрейт : 192 Кбит/сек
Каналы : 2 канала
Расположение каналов : Front: L R
Частота : 48,0 КГц
Метод сжатия : С потерями
Размер потока : 113 Мбайт (2%)
Язык : English
Default : Нет
Forced : Нет
Текст
Идентификатор : 4
Формат : UTF-8
Идентификатор кодека : S_TEXT/UTF8
Идентификатор кодека/Информация : UTF-8 Plain Text
Язык : English
Default : Нет
Forced : Нет

Скриншоты:

Яндекс.Метрика
Рейтинг@Mail.ru