Полина Гагарина — Я Не Буду (2015) WEBRip 1080p | 60 fps

 

Создавать темы 04-Ноя-2015 20:13

--Полина Гагарина — Я Не Буду (2015) WEBRip 1080p | 60 fps --Информация о Клипе
Исполнитель: Полина Гагарина
Название: Я Не Буду
Год выхода: 2015
Продолжительность: 00:03:40
О клипе:
Новый клип Полины Гагариной на песню «Я не буду», музыку к которой написала сама артистка, создавался при активной поддержке коллег певицы.
Режиссером видео выступил Алексей Голубев. Съемки проходили в резиденции Эмина Агаларова, а главного героя сыграл актер Владимир Яглыч. Кстати, кандидатур на эту роль было много, поэтому окончательный выбор сделал супруг Полины — Дмитрий Исхаков.
«Песня заставляет или энергично танцевать, или серьезно задуматься над извечным вопросом отношений мужчины и женщины», — говорится в описании видео.
-Файл
Кодек: MPEG4/ISO/AVC/ H.264
Формат: MKV
Качество: WEBRip 1080p
Видео: 1920 x 816 (2.353) at 60.000 fps 5.0 Мбит/сек
Аудио: MP3 | 320 Кбит/сек | 44.1 KHz | 2 channels

MI

Видео
Идентификатор                            : 1
Формат                                   : AVC
Формат/Информация                        : Advanced Video Codec
Профиль формата                          : [email protected]
Параметр CABAC формата                   : Да
Параметр ReFrames формата                : 3 кадра
Идентификатор кодека                     : V_MPEG4/ISO/AVC
Продолжительность                        : 3 м. 40 с.
Вид битрейта                             : Переменный
Битрейт                                  : 4881 Кбит/сек
Максимальный битрейт                     : 5000 Кбит/сек
Ширина                                   : 1920 пикселей
Высота                                   : 816 пикселей
Соотношение сторон                       : 2,35:1
Режим частоты кадров                     : Постоянный
Частота кадров                           : 60,000 кадров/сек
Стандарт вещания                         : PAL
Цветовое пространство                    : YUV
Субдискретизация насыщенности            : 4:2:0
Битовая глубина                          : 8 бит
Тип развёртки                            : Прогрессивная
Бит/(Пиксели*Кадры)                      : 0.052
Размер потока                            : 128 Мбайт (92%)
Заголовок                                : www.60-fps.org
Язык                                     : English
Default                                  : Да
Forced                                   : Нет
Основные цвета                           : BT.709
Характеристики трансфера                 : BT.709
Коэффициенты матрицы                     : BT.709
colour_range                             : Limited
Аудио
Идентификатор                            : 2
Формат                                   : MPEG Audio
Версия формата                           : Version 1
Профиль формата                          : Layer 3
Режим                                    : Joint stereo
Расширение режима                        : MS Stereo
Идентификатор кодека                     : A_MPEG/L3
Идентификатор кодека/Подсказка           : MP3
Продолжительность                        : 3 м. 40 с.
Вид битрейта                             : Постоянный
Битрейт                                  : 320 Кбит/сек
Каналы                                   : 2 канала
Частота                                  : 44,1 КГц
Метод сжатия                             : С потерями
Размер потока                            : 8,40 Мбайт (6%)
Библиотека кодирования                   : LAME3.99.5
Default                                  : Да
Forced                                   : Нет

Скриншоты:

Яндекс.Метрика
Рейтинг@Mail.ru