365: Людовик ХIV, загадка форта Сент Себастьян / Louis XIV et l'énigme du fort Saint Sébastien (Лоран Мармоль / Laurent Marmol, Фредерик Лоссиньоль / Frédéric Lossignol) [2014 г., Документальный, история, археология, строительство и архитектура,

 

Создавать темы 31-Окт-2015 18:20

-365: Людовик ХIV, загадка форта Сент Себастьян / Louis XIV et l'énigme du fort Saint Sébastien- Год выпуска: 2014
Страна: Франция, Gedeon Programmes
Жанр: Документальный, история, археология, строительство и архитектура
Продолжительность: 00:52:21
Перевод: Профессиональный (двухголосый), студия "SDI Media" по заказу ТПО "Ред Медиа"
Режиссер: Лоран Мармоль / Laurent Marmol, Фредерик Лоссиньоль / Frédéric Lossignol-Описание:-В ходе строительных работ в пригороде Парижа, недалеко от Сены, было обнаружено забытое всеми место, свидетельствующее об одной из величайших эпох в истории Франции. С ним была связана судьба молодого Людовика, будущего великого государя. В форте Сен-Себастьян проходили военные учения. Армия короля готовилась к завоеваниям Голландии и других стран Европы. Людовик по прозвищу Король-Солнце вызывал всеобщее восхищение, а многие даже боялись его.-Качество: SATRip
Контейнер: AVI
Видео кодек: XviD
Аудио кодек: AC3
Видео: 720x400 25fps 1800kbps
Аудио: AC3 2ch, 48kHz, 192 kbps-

MediaInfo

Format : AVI
Format/Info : Audio Video Interleave
File size : 748 MiB
Duration : 52mn 20s
Overall bit rate : 1 998 Kbps
Writing application : TMPGEnc Video Mastering Works 5 Version. 5.0.6.38
Writing library : TMPGEnc Video Mastering Works 5 Version. 5.0.6.38
Video
ID : 0
Format : MPEG-4 Visual
Format profile : Advanced [email protected]
Format settings, BVOP : 2
Format settings, QPel : No
Format settings, GMC : No warppoints
Format settings, Matrix : Default (H.263)
Muxing mode : Packed bitstream
Codec ID : XVID
Codec ID/Hint : XviD
Duration : 52mn 20s
Bit rate : 1 798 Kbps
Width : 720 pixels
Height : 400 pixels
Display aspect ratio : 16:9
Frame rate : 25.000 fps
Color space : YUV
Chroma subsampling : 4:2:0
Bit depth : 8 bits
Scan type : Progressive
Compression mode : Lossy
Bits/(Pixel*Frame) : 0.250
Stream size : 673 MiB (90%)
Writing library : XviD 73
Audio
ID : 1
Format : AC-3
Format/Info : Audio Coding 3
Mode extension : CM (complete main)
Format settings, Endianness : Big
Codec ID : 2000
Duration : 52mn 20s
Bit rate mode : Constant
Bit rate : 192 Kbps
Channel(s) : 2 channels
Channel positions : Front: L R
Sampling rate : 48.0 KHz
Bit depth : 16 bits
Compression mode : Lossy
Stream size : 71.9 MiB (10%)
Alignment : Aligned on interleaves
Interleave, duration : 240 ms (6.00 video frames)
Interleave, preload duration : 224 ms
-Скриншоты--Благодарность за предоставленный рип: -Время раздачи: 24/7 (круглосуточно)-
Яндекс.Метрика
Рейтинг@Mail.ru