[ Сегодня на трекере фрилич! Идет свободное скачивание без начисления Download ]

Сын отца народов (2013) WEB-DLRip [H.264/720p-LQ] (серии 1-12 из 12)

 

Создавать темы 28-Окт-2015 21:35

-Сын отца народов (2013) WEB-DLRip [H.264/720p-LQ] (серии 1-12 из 12)- Производство: Россия / "Film.ua"
Жанр: биография, драма, исторический
Режиссер: Сергей Гинзбург, Сергей Щербин
Актеры: Гела Месхи, Василий Прокопьев, Анатолий Дзиваев, Сергей Газаров, Надежда Михалкова, Илья Ермолов, Алексей Вертков, Александр Никольский (II), Анатолий Гущин, Евгений Сангаджиев, Кристина Пакарина, Мария Жиганова, Артём Осипов, Светлана Колпакова, Юрий Маслак, Марьяна Спивак, Анна Кирина, Дмитрий Абазовик, Иван Суханов, Максим Сапрыкин (II), Мария Андреева и др.
Описание:
Сериал о Василии Сталине позволит проследить за удивительной судьбой самого известного «мажора» первой половины XX века и с разных сторон посмотреть на его жизнь, полную крутых поворотов. Генерал-лейтенант в 26 лет, бабник и гуляка, Василий — невероятно обаятельный человек. Он отличный друг, прекрасный руководитель и талантливый спортсмен. Весь мир у него в кармане, но в день, когда Великий Сталин умирает, жизнь его сына меняется раз и навсегда…

Дата премьеры в РФ: 19 августа 2013
Продолжительность: ~00:55:00 серия
Качество видео: WEB-DLRip
Видео: AVC/H.264, 1280х718 (16:9), ~1800 kbps
Аудио: AC3, 2 ch, 192 kbps, CBR

Mediainfo:

Общее
Уникальный идентификатор                 : 199892962644579640523088711930301846551 (0x9661FBF75886DDAAA5A6D7F2A1471417)
Полное имя                               : E:\DOWNLOADS\Сын отца народов (2013) WEB-DLRip 720\Сын отца народов - 01 серия.mkv
Формат                                   : Matroska
Версия формата                           : Version 2
Размер файла                             : 771 Мбайт
Продолжительность                        : 54 м.
Режим общего битрейта                    : Переменный
Общий поток                              : 1987 Кбит/сек
Дата кодирования                         : UTC 2015-10-28 17:16:46
Программа кодирования                    : mkvmerge v7.8.0 ('River Man') 32bit built on Apr  3 2015 12:11:22
Библиотека кодирования                   : libebml v1.3.1 + libmatroska v1.4.2
Видео
Идентификатор                            : 1
Формат                                   : AVC
Формат/Информация                        : Advanced Video Codec
Профиль формата                          : [url=mailto:[email protected]][email protected][/url]
Параметр CABAC формата                   : Да
Параметр ReFrames формата                : 3 кадра
Идентификатор кодека                     : V_MPEG4/ISO/AVC
Продолжительность                        : 54 м.
Вид битрейта                             : Переменный
Битрейт                                  : 1800 Кбит/сек
Максимальный битрейт                     : 40,0 Мбит/сек
Ширина                                   : 1280 пикселей
Высота                                   : 718 пикселей
Соотношение сторон                       : 16:9
Режим частоты кадров                     : Постоянный
Частота кадров                           : 25,000 кадров/сек
Цветовое пространство                    : YUV
Субдискретизация насыщенности            : 4:2:0
Битовая глубина                          : 8 бит
Тип развёртки                            : Прогрессивная
Бит/(Пиксели*Кадры)                      : 0.078
Размер потока                            : 681 Мбайт (88%)
Библиотека кодирования                   : x264 core 142 r2389 956c8d8
Настройки программы                      : cabac=1 / ref=3 / deblock=1:0:0 / analyse=0x3:0x133 / me=umh / subme=7 / psy=1 / psy_rd=1.00:0.00 / mixed_ref=1 / me_range=32 / chroma_me=1 / trellis=2 / 8x8dct=1 / cqm=0 / deadzone=21,11 / fast_pskip=1 / chroma_qp_offset=-2 / threads=12 / lookahead_threads=2 / sliced_threads=0 / nr=0 / decimate=1 / interlaced=0 / bluray_compat=0 / constrained_intra=0 / bframes=0 / weightp=0 / keyint=75 / keyint_min=26 / scenecut=40 / intra_refresh=0 / rc_lookahead=50 / rc=2pass / mbtree=0 / bitrate=1800 / ratetol=1.0 / qcomp=0.20 / qpmin=10 / qpmax=51 / qpstep=4 / cplxblur=20.0 / qblur=0.5 / vbv_maxrate=2000 / vbv_bufsize=2000 / nal_hrd=none / filler=0 / ip_ratio=1.40 / aq=1:1.0
Default                                  : Да
Forced                                   : Нет
Цветовой диапазон                        : Limited
Основные цвета                           : BT.709
Характеристики трансфера                 : BT.709
Коэффициенты матрицы                     : BT.709
Аудио
Идентификатор                            : 2
Формат                                   : AC-3
Формат/Информация                        : Audio Coding 3
Расширение режима                        : CM (complete main)
Параметр Endianness формата              : Big
Идентификатор кодека                     : A_AC3
Продолжительность                        : 54 м.
Вид битрейта                             : Постоянный
Битрейт                                  : 192 Кбит/сек
Каналы                                   : 2 канала
Расположение каналов                     : Front: L R
Частота                                  : 44,1 КГц
Метод сжатия                             : С потерями
Размер потока                            : 74,5 Мбайт (10%)
Default                                  : Да
Forced                                   : Нет
Скриншоты:
Время раздачи: с 10:00 до 20:00
Яндекс.Метрика
Рейтинг@Mail.ru