Ковбои против динозавров / Cowboys vs Dinosaurs (2015) BDRip 1080p | L1

 

Создавать темы 28-Окт-2015 20:46

Ковбои против динозавров / Cowboys vs DinosaursГод выхода: 2015
Жанр: фантастика, боевик
Режиссер: Эри Новак
В ролях:
Эрик Робертс, Райб Хиллс, Кэйси Фицджералд, Вернон Уэллс, Джон Фриман, Сара Малакул Лэйн, Хезер Фут, Ник Эндрюс, Jesse Banthem, Стефани Мишелль Боннер
О фильме:
После случайного взрыва на местном руднике, динозавры вышли из - под завалов, чтобы терроризировать маленький западный город. Теперь группа стрелков должна защищать свой дом, чтобы выжить в битве ковбоев против динозавров.


Выпущено: США / Oracle Film Group, The
Продолжительность: 01:29:08
Озвучивание: Любительское (одноголосое) [datynet], перевод [Anton1]

Файл
Формат: MKV
Качество: BDRip 1080p
Видео: MPEG-4 AVC, 7165 kb/s, 1920x1080
Аудио: Russian: AC3, 192 kb/s (2 ch) / English: DTS, 1510 kb/s (6 ch)

MI

Format                         : Matroska
Format version                 : Version 2
File size                      : 5.63 GiB
Duration                       : 1h 29mn
Overall bit rate               : 9 046 Kbps
Encoded date                   : UTC 2015-10-28 11:16:34
Writing application            : mkvmerge v7.8.0 ('River Man') 32bit built on Apr  3 2015 12:11:22
Writing library                : libebml v1.3.1 + libmatroska v1.4.2
Video
ID                             : 1
Format                         : AVC
Format/Info                    : Advanced Video Codec
Format profile                 : [email protected]
Format settings, CABAC         : Yes
Format settings, ReFrames      : 4 frames
Codec ID                       : V_MPEG4/ISO/AVC
Duration                       : 1h 29mn
Bit rate                       : 7 165 Kbps
Width                          : 1 920 pixels
Height                         : 1 080 pixels
Display aspect ratio           : 16:9
Frame rate mode                : Constant
Frame rate                     : 23.976 fps
Color space                    : YUV
Chroma subsampling             : 4:2:0
Bit depth                      : 8 bits
Scan type                      : Progressive
Bits/(Pixel*Frame)             : 0.144
Stream size                    : 4.46 GiB (79%)
Writing library                : x264 core 148 r2638 7599210
Encoding settings              : cabac=1 / ref=4 / deblock=1:-1:-1 / analyse=0x3:0x133 / me=umh / subme=7 / psy=1 / psy_rd=1.00:0.15 / mixed_ref=1 / me_range=16 / chroma_me=1 / trellis=1 / 8x8dct=1 / cqm=0 / deadzone=21,11 / fast_pskip=0 / chroma_qp_offset=-3 / threads=8 / lookahead_threads=1 / sliced_threads=0 / nr=0 / decimate=1 / interlaced=0 / bluray_compat=0 / constrained_intra=0 / bframes=3 / b_pyramid=2 / b_adapt=1 / b_bias=0 / direct=1 / weightb=1 / open_gop=0 / weightp=2 / keyint=250 / keyint_min=23 / scenecut=40 / intra_refresh=0 / rc_lookahead=40 / rc=crf / mbtree=1 / crf=20.0 / qcomp=0.60 / qpmin=0 / qpmax=69 / qpstep=4 / ip_ratio=1.40 / aq=1:1.00
Language                       : English
Default                        : Yes
Forced                         : No
Audio #1
ID                             : 2
Format                         : AC-3
Format/Info                    : Audio Coding 3
Mode extension                 : CM (complete main)
Format settings, Endianness    : Big
Codec ID                       : A_AC3
Duration                       : 1h 29mn
Bit rate mode                  : Constant
Bit rate                       : 192 Kbps
Channel(s)                     : 2 channels
Channel positions              : Front: L R
Sampling rate                  : 48.0 KHz
Bit depth                      : 16 bits
Compression mode               : Lossy
Stream size                    : 122 MiB (2%)
Language                       : Russian
Default                        : Yes
Forced                         : No
Audio #2
ID                             : 3
Format                         : DTS
Format/Info                    : Digital Theater Systems
Mode                           : 16
Format settings, Endianness    : Big
Codec ID                       : A_DTS
Duration                       : 1h 29mn
Bit rate mode                  : Constant
Bit rate                       : 1 509 Kbps
Channel(s)                     : 6 channels
Channel positions              : Front: L C R, Side: L R, LFE
Sampling rate                  : 48.0 KHz
Bit depth                      : 16 bits
Compression mode               : Lossy
Stream size                    : 962 MiB (17%)
Language                       : English
Default                        : No
Forced                         : No
Menu
00:00:00.000                   : en:00:00:00.000
00:08:13.284                   : en:00:08:13.284
00:16:13.306                   : en:00:16:13.306
00:22:17.336                   : en:00:22:17.336
00:30:44.843                   : en:00:30:44.843
00:42:13.406                   : en:00:42:13.406
00:48:02.463                   : en:00:48:02.463
00:56:06.989                   : en:00:56:06.989
01:03:23.466                   : en:01:03:23.466
01:13:27.028                   : en:01:13:27.028
01:20:59.646                   : en:01:20:59.646
01:27:15.313                   : en:01:27:15.313

Скриншоты:

Яндекс.Метрика
Рейтинг@Mail.ru