(Тестовый диск) Судейский диск SQ EMMA 2009-2011 (EMMA Official Sound Quality Competition Disc 2009/2011) - 2009, FLAC (image+.cue), lossless

 

Создавать темы 28-Окт-2015 15:04

-Судейский диск SQ EMMA 2009-11(EMMA Official Sound Quality Competition Disc 2009/2011)- Год выпуска диска: 2009
Производитель диска: Германия
Аудио кодек: FLAC
Тип рипа: image+.cue
Битрейт аудио: lossless
Продолжительность: 44.08
Треклист: в раздаче
Дополнительная информация: Диск предназначен для оценки качества звучания аудиосистемы автомобиля по правилам ассоциации автозвука EMMA, объединяющей в своих рядах более, чем 50 стран мира. Диск записан в студии "Cap a pie Studios" в Германии. Также, в раздаче присутствует подробное описание диска, которое помогает идеально точно настроить аудиосистему в автомобиле, однако, ничто не помешает использовать диск и описание, применимо к домашней акустике. Официальный сайт EMMA: www.emmanet.eu

Отчёт EAC

Exact Audio Copy V0.99 prebeta 4 from 23. January 2008
Отчёт EAC об извлечении, выполненном 21. сентября 2009, 14:19
VA / Emma Sq Cd 2009\2010
Дисковод: PBDS DVD+-RW DS-8W1P Adapter: 0 ID: 0
Режим чтения : Достоверность
Использование точного потока : Да
Отключение кэша аудио : Да
Использование указателей C2 : Нет
Коррекция смещения при чтении : 594
Способность читать области Lead-in и Lead-out : Нет
Заполнение пропущенных сэмплов тишиной : Да
Удаление блоков с тишиной в начале и конце : Нет
При вычислениях CRC использовались нулевые сэмплы : Да
Интерфейс : Встроенный Win32-интерфейс для Win NT/2000
Выходной формат : Внутренние WAV-операции
Формат сэмплов : 44.100 Гц; 16 бит; стерео
TOC извлечённого CD
Трек | Старт | Длительность | Начальный сектор | Конечный сектор
---------------------------------------------------------------------
1 | 0:00.00 | 0:43.25 | 0 | 3249
2 | 0:43.25 | 0:25.25 | 3250 | 5149
3 | 1:08.50 | 0:53.32 | 5150 | 9156
4 | 2:02.07 | 2:50.66 | 9157 | 21972
5 | 4:52.73 | 1:10.36 | 21973 | 27258
6 | 6:03.34 | 3:45.02 | 27259 | 44135
7 | 9:48.36 | 1:31.55 | 44136 | 51015
8 | 11:20.16 | 1:40.21 | 51016 | 58536
9 | 13:00.37 | 1:37.60 | 58537 | 65871
10 | 14:38.22 | 1:02.39 | 65872 | 70560
11 | 15:40.61 | 0:09.15 | 70561 | 71250
12 | 15:50.01 | 1:15.61 | 71251 | 76936
13 | 17:05.62 | 3:34.57 | 76937 | 93043
14 | 20:40.44 | 1:50.50 | 93044 | 101343
15 | 22:31.19 | 2:30.06 | 101344 | 112599
16 | 25:01.25 | 4:37.64 | 112600 | 133438
17 | 29:39.14 | 4:37.55 | 133439 | 154268
18 | 34:16.69 | 1:33.26 | 154269 | 161269
19 | 35:50.20 | 2:15.51 | 161270 | 171445
20 | 38:05.71 | 1:33.46 | 171446 | 178466
21 | 39:39.42 | 1:12.46 | 178467 | 183912
22 | 40:52.13 | 0:57.00 | 183913 | 188187
23 | 41:49.13 | 0:42.00 | 188188 | 191337
24 | 42:31.13 | 1:02.00 | 191338 | 195987
25 | 43:33.13 | 0:35.00 | 195988 | 198612
Характеристики диапазона извлечения и сообщения об ошибках
Выбранный диапазон
Имя файла I:\EMMA\VA - Emma Sq Cd 2009 2010.wav
Пиковый уровень 98.5 %
Качество диапазона 100.0 %
CRC теста 6AD2233A
CRC копии 6AD2233A
Копирование... OK
Ошибок не произошло
Яндекс.Метрика
Рейтинг@Mail.ru