Виктор Цой и гр. Кино (минусовое караоке) (2010) DVD5

 

Создавать темы 26-Окт-2015 08:32

- Виктор Цой и гр. Кино (минусовое караоке) (2010) DVD5 - Жанр: Популярная музыка
Треклист:
01. Алюминиевые огурцы
02. Апрель
03. Видели ночь
04. В наших глазах
05. Война
06. Восьмиклассница
07. Группа крови
08. Закрой за мной дверь
09. Звезда по имени Солнце
10. Камчатка
11. Когда твоя девушка больна
12. Кончится лето
13. Красно-жёлтые дни
14. Кукушка
15. Легенда
16. Мама,мы все сошли с ума
17. Мама Анархия
18. Место для шага вперед
19. Мои друзья
20. Муравейник

Остальной треклист:

21. Нам с тобой
22. Невеселая песня
23. Пачка сигарет
24. Песня без слов
25. Печаль
26. Попробуй спеть вместе со мной
27. Последний герой
28. Следи за собой
29. Сосны на морском берегу
30. Спокойная ночь
31. Стук
32. Троллейбус
33. Хочу перемен

Mediainfo:

General
Complete name                            : I:\Караоке Виктор Цой и гр. Кино\VIDEO_TS\VTS_01_1.VOB
Format                                   : MPEG-PS
File size                                : 85.8 MiB
Duration                                 : 2mn 39s
Overall bit rate mode                    : Variable
Overall bit rate                         : 4 506 Kbps
Video
ID                                       : 224 (0xE0)
Format                                   : MPEG Video
Format version                           : Version 2
Format profile                           : [email protected]
Format settings, BVOP                    : Yes
Format settings, Matrix                  : Custom
Format settings, GOP                     : Variable
Duration                                 : 2mn 39s
Bit rate mode                            : Variable
Bit rate                                 : 4 224 Kbps
Maximum bit rate                         : 9 586 Kbps
Width                                    : 720 pixels
Height                                   : 576 pixels
Display aspect ratio                     : 4:3
Frame rate                               : 25.000 fps
Standard                                 : PAL
Color space                              : YUV
Chroma subsampling                       : 4:2:0
Bit depth                                : 8 bits
Scan type                                : Progressive
Scan order                               : Top Field First
Compression mode                         : Lossy
Bits/(Pixel*Frame)                       : 0.407
Time code of first frame                 : 00:00:00:00
Time code source                         : Group of pictures header
Stream size                              : 80.4 MiB (94%)
Audio
ID                                       : 189 (0xBD)-128 (0x80)
Format                                   : AC-3
Format/Info                              : Audio Coding 3
Mode extension                           : CM (complete main)
Format settings, Endianness              : Big
Muxing mode                              : DVD-Video
Duration                                 : 2mn 39s
Bit rate mode                            : Constant
Bit rate                                 : 192 Kbps
Channel(s)                               : 2 channels
Channel positions                        : Front: L R
Sampling rate                            : 48.0 KHz
Bit depth                                : 16 bits
Compression mode                         : Lossy
Delay relative to video                  : -40ms
Stream size                              : 3.66 MiB (4%)
Menu
Качество видео: DVD5
Перевод: Не требуется
Продолжительность: 02:16:43
Видео: MPEG-2, 720x576, ~4000 kbps, 25,000 кадров/сек
Аудио: AC3, 2 ch, 192 kbpsСкриншоты:
-Время раздачи: До первых устойчивых сидов

Создавать темы 26-Окт-2015 11:53 (спустя 3 часа)

вот эта оперативность догадываюсь откуда торрентик.приду от хирурга обязательно у вас стяну.

Создавать темы 26-Окт-2015 14:54 (спустя 3 часа)

красивое видео под его музыку, без его голоса (без песен), мне не понравилось, это только моё частное мнение без претензий на истину
Яндекс.Метрика
Рейтинг@Mail.ru