[ Сегодня на трекере фрилич! Идет свободное скачивание без начисления Download ]

Ливень / Hard Rain (1998) BDRip-AVC

 

Создавать темы 25-Окт-2015 12:21

Ливень / Hard RainГод выпуска: 1998
Страна: США, Германия, Дания, Франция, Япония, Великобритания, Новая Зеландия
Жанр: боевик, триллер, драма, криминал
Продолжительность: 01:36:39
Перевод: дублированный, профессиональный многоголосый, профессиональный двухголосый, авторский
Режиссёр: Микаэл Саломон
В ролях: Морган Фримен, Кристиан Слэйтер, Рэнди Куэйд, Минни Драйвер, Эдвард Аснер, Майкл А. Гурджиан, Дэнн Флорек, Рики Харрис, Марк Ролстон, Питер Мёрник
Описание: Вышедшая из берегов река становится причиной крупного наводнения в провинциальном американском городке. Мимо города следует инкассаторский автомобиль, перевозящий несколько миллионов долларов. Попав в засаду, неопытный охранник Том оказывается один на один с бандой «беспощадного Джима» и бушующей природной стихией. Выжить невозможно...

Качество: BDRip AVC Сравнение с исходником
Формат: MKV
Видео: MPEG-4 AVC, 1943 Kбит/с, 1024x430, 23,976 кадра/с
Аудио 1: русский, AC3, 448 kbps, 6 ch, 48 kHz [дублированный, R5]
Аудио 2: русский, AC3, 448 kbps, 6 ch, 48 kHz [профессиональный многоголосый, Lizard Cinema Trade]
Аудио 3: русский, AC3, 448 kbps, 6 ch, 48 kHz [авторский, Андрей Гаврилов]
Внешние файлы
Аудио: русский, AC3, 192 kbps, 2 ch, 48 kHz [профессиональный многоголосый, OPT]
Аудио: русский, AC3, 192 kbps, 2 ch, 48 kHz [профессиональный двухголосый, Премьер Мультимедиа]
Аудио: русский, AC3, 448 kbps, 6 ch, 48 kHz [авторский, Юрий Живов]
Аудио: английский, AC3, 448 kbps, 6 ch, 48 kHz [оригинал]
Субтитры: русские
Субтитры: английские

Инфо-файл

Общее
Полное имя                               : D:VideoЛивень.1998.BDRip.AVCЛивень.1998.AVO.rus.Ю.Живов.ac3
Формат                                   : AC-3
Формат/Информация                        : Audio Coding 3
Размер файла                             : 309 Мбайт
Продолжительность                        : 1 ч. 36 м.
Режим общего битрейта                    : Постоянный
Общий поток                              : 448 Кбит/сек
Аудио
Формат                                   : AC-3
Формат/Информация                        : Audio Coding 3
Расширение режима                        : CM (complete main)
Параметр Endianness формата              : Big
Продолжительность                        : 1 ч. 36 м.
Вид битрейта                             : Постоянный
Битрейт                                  : 448 Кбит/сек
Каналы                                   : 6 каналов
Расположение каналов                     : Front: L C R, Side: L R, LFE
Частота                                  : 48,0 КГц
Метод сжатия                             : С потерями
Размер потока                            : 309 Мбайт (100%)
Общее
Уникальный идентификатор                 : 197633637975493028088464794257582831558 (0x94AEDAA8E333A2A08659A7D1F1BDB7C6)
Полное имя                               : D:VideoЛивень.1998.BDRip.AVCЛивень.1998.BDRip.AVC.mkv
Формат                                   : Matroska
Версия формата                           : Version 4 / Version 2
Размер файла                             : 2,26 Гбайт
Продолжительность                        : 1 ч. 36 м.
Общий поток                              : 3354 Кбит/сек
Название фильма                          : BDRip  --  STarankov
Дата кодирования                         : UTC 2015-10-24 15:37:26
Программа кодирования                    : mkvmerge v8.2.0 ('World of Adventure') 64bit
Библиотека кодирования                   : libebml v1.3.1 + libmatroska v1.4.2
DURATION                                 : 01:36:34.848000000
NUMBER_OF_FRAMES                         : 181089
NUMBER_OF_BYTES                          : 324511488
_STATISTICS_WRITING_APP                  : mkvmerge v8.2.0 ('World of Adventure') 64bit
_STATISTICS_WRITING_DATE_UTC             : 2015-10-24 15:37:26
_STATISTICS_TAGS                         : BPS DURATION NUMBER_OF_FRAMES NUMBER_OF_BYTES
Видео
Идентификатор                            : 1
Формат                                   : AVC
Формат/Информация                        : Advanced Video Codec
Профиль формата                          : [email protected]
Параметр CABAC формата                   : Да
Параметр ReFrames формата                : 9 кадров
Идентификатор кодека                     : V_MPEG4/ISO/AVC
Продолжительность                        : 1 ч. 36 м.
Битрейт                                  : 1943 Кбит/сек
Ширина                                   : 1024 пикселя
Высота                                   : 430 пикселей
Соотношение сторон                       : 2,40:1
Режим частоты кадров                     : Постоянный
Частота кадров                           : 23,976 кадра/сек
Цветовое пространство                    : YUV
Субдискретизация насыщенности            : 4:2:0
Битовая глубина                          : 8 бит
Тип развёртки                            : Прогрессивная
Бит/(Пиксели*Кадры)                      : 0.184
Размер потока                            : 1,31 Гбайт (58%)
Библиотека кодирования                   : x264 core 146 r2538 121396c
Настройки программы                      : cabac=1 / ref=9 / deblock=1:-3:-3 / analyse=0x3:0x113 / me=umh / subme=10 / psy=1 / psy_rd=1.00:0.15 / mixed_ref=1 / me_range=32 / chroma_me=1 / trellis=2 / 8x8dct=1 / cqm=0 / deadzone=21,11 / fast_pskip=1 / chroma_qp_offset=-3 / threads=6 / lookahead_threads=1 / sliced_threads=0 / nr=0 / decimate=1 / interlaced=0 / bluray_compat=0 / constrained_intra=0 / bframes=7 / b_pyramid=2 / b_adapt=2 / b_bias=0 / direct=1 / weightb=1 / open_gop=0 / weightp=2 / keyint=230 / keyint_min=23 / scenecut=40 / intra_refresh=0 / rc_lookahead=40 / rc=crf / mbtree=0 / crf=21.0 / qcomp=0.60 / qpmin=0 / qpmax=69 / qpstep=4 / vbv_maxrate=40000 / vbv_bufsize=50000 / crf_max=0.0 / nal_hrd=none / filler=0 / ip_ratio=1.40 / pb_ratio=1.30 / aq=1:1.00
Язык                                     : English
Default                                  : Да
Forced                                   : Нет
DURATION                                 : 01:36:34.789000000
NUMBER_OF_FRAMES                         : 138936
NUMBER_OF_BYTES                          : 1456388578
_STATISTICS_WRITING_APP                  : mkvmerge v8.2.0 ('World of Adventure') 64bit
_STATISTICS_WRITING_DATE_UTC             : 2015-10-24 15:37:26
_STATISTICS_TAGS                         : BPS DURATION NUMBER_OF_FRAMES NUMBER_OF_BYTES
Аудио #1
Идентификатор                            : 2
Формат                                   : AC-3
Формат/Информация                        : Audio Coding 3
Расширение режима                        : CM (complete main)
Параметр Endianness формата              : Big
Идентификатор кодека                     : A_AC3
Продолжительность                        : 1 ч. 36 м.
Вид битрейта                             : Постоянный
Битрейт                                  : 448 Кбит/сек
Каналы                                   : 6 каналов
Расположение каналов                     : Front: L C R, Side: L R, LFE
Частота                                  : 48,0 КГц
Метод сжатия                             : С потерями
Размер потока                            : 310 Мбайт (13%)
Заголовок                                : DUB (R5, Союз Видео)
Язык                                     : Russian
Default                                  : Да
Forced                                   : Нет
Аудио #2
Идентификатор                            : 3
Формат                                   : AC-3
Формат/Информация                        : Audio Coding 3
Расширение режима                        : CM (complete main)
Параметр Endianness формата              : Big
Идентификатор кодека                     : A_AC3
Продолжительность                        : 1 ч. 36 м.
Вид битрейта                             : Постоянный
Битрейт                                  : 448 Кбит/сек
Каналы                                   : 6 каналов
Расположение каналов                     : Front: L C R, Side: L R, LFE
Частота                                  : 48,0 КГц
Метод сжатия                             : С потерями
Размер потока                            : 310 Мбайт (13%)
Заголовок                                : MVO (Lizard Cinema Trade)
Язык                                     : Russian
Default                                  : Нет
Forced                                   : Нет
Аудио #3
Идентификатор                            : 4
Формат                                   : AC-3
Формат/Информация                        : Audio Coding 3
Расширение режима                        : CM (complete main)
Параметр Endianness формата              : Big
Идентификатор кодека                     : A_AC3
Продолжительность                        : 1 ч. 36 м.
Вид битрейта                             : Постоянный
Битрейт                                  : 448 Кбит/сек
Каналы                                   : 6 каналов
Расположение каналов                     : Front: L C R, Side: L R, LFE
Частота                                  : 48,0 КГц
Метод сжатия                             : С потерями
Размер потока                            : 310 Мбайт (13%)
Заголовок                                : AVO (Андрей Гаврилов)
Язык                                     : Russian
Default                                  : Нет
Forced                                   : Нет
Общее
Полное имя                               : D:VideoЛивень.1998.BDRip.AVCЛивень.1998.DVO.rus.Премьер Мультимедиа.ac3
Формат                                   : AC-3
Формат/Информация                        : Audio Coding 3
Размер файла                             : 133 Мбайт
Продолжительность                        : 1 ч. 36 м.
Режим общего битрейта                    : Постоянный
Общий поток                              : 192 Кбит/сек
Аудио
Формат                                   : AC-3
Формат/Информация                        : Audio Coding 3
Расширение режима                        : CM (complete main)
Параметр Endianness формата              : Big
Продолжительность                        : 1 ч. 36 м.
Вид битрейта                             : Постоянный
Битрейт                                  : 192 Кбит/сек
Каналы                                   : 2 канала
Расположение каналов                     : Front: L R
Частота                                  : 48,0 КГц
Метод сжатия                             : С потерями
Размер потока                            : 133 Мбайт (100%)
Общее
Полное имя                               : D:VideoЛивень.1998.BDRip.AVCЛивень.1998.eng.srt
Размер файла                             : 121 Кбайт
Общее
Полное имя                               : D:VideoЛивень.1998.BDRip.AVCЛивень.1998.MVO.rus.ОРТ.ac3
Формат                                   : AC-3
Формат/Информация                        : Audio Coding 3
Размер файла                             : 133 Мбайт
Продолжительность                        : 1 ч. 36 м.
Режим общего битрейта                    : Постоянный
Общий поток                              : 192 Кбит/сек
Аудио
Формат                                   : AC-3
Формат/Информация                        : Audio Coding 3
Расширение режима                        : CM (complete main)
Параметр Endianness формата              : Big
Продолжительность                        : 1 ч. 36 м.
Вид битрейта                             : Постоянный
Битрейт                                  : 192 Кбит/сек
Каналы                                   : 2 канала
Расположение каналов                     : Front: L R
Частота                                  : 48,0 КГц
Метод сжатия                             : С потерями
Размер потока                            : 133 Мбайт (100%)
Общее
Полное имя                               : D:VideoЛивень.1998.BDRip.AVCЛивень.1998.Original.eng.ac3
Формат                                   : AC-3
Формат/Информация                        : Audio Coding 3
Размер файла                             : 309 Мбайт
Продолжительность                        : 1 ч. 36 м.
Режим общего битрейта                    : Постоянный
Общий поток                              : 448 Кбит/сек
Аудио
Формат                                   : AC-3
Формат/Информация                        : Audio Coding 3
Расширение режима                        : CM (complete main)
Параметр Endianness формата              : Big
Продолжительность                        : 1 ч. 36 м.
Вид битрейта                             : Постоянный
Битрейт                                  : 448 Кбит/сек
Каналы                                   : 6 каналов
Расположение каналов                     : Front: L C R, Side: L R, LFE
Частота                                  : 48,0 КГц
Метод сжатия                             : С потерями
Размер потока                            : 309 Мбайт (100%)
Общее
Полное имя                               : D:VideoЛивень.1998.BDRip.AVCЛивень.1998.rus.srt
Размер файла                             : 90,9 Кбайт

Скриншоты:

Яндекс.Метрика
Рейтинг@Mail.ru