[ Сегодня на трекере фрилич! Идет свободное скачивание без начисления Download ]

Врата тьмы / Pay the Ghost (2015) BDRip 1080p | iTunes

 

Создавать темы 24-Окт-2015 11:39

Врата тьмы / Pay the GhostСтрана: Канада
Студия: Midnight Kitchen Productions
Жанр: Ужасы, триллер
Год выпуска: 2015
Продолжительность: 01:34:05
Перевод: Профессиональный (дублированный) iTunes
Cубтитры: английские
Оригинальная аудиодорожка: английский
Режиссер: Ули Эдель / Uli Edel
В ролях: Николас Кейдж, Сара Уэйн Каллис, Алекс Маллари-мл., Вероника Феррес, Лирик Бент, Эрин Бойес, Джек Фултон, София Уэллс, Элизабет Джинна ле Ру, Марк Ирвингсен, Максвелл МакКейб-Локос, Хуан Карлос Велис, Лорен Битти
Роли дублировали: Александр Рахленко, Анастасия Лапина, Жанна Никонова, Ольга Голованова, Станислав Стрелков
Описание: Существует древнее поверье, что раз в год, на Хэллоуин, открываются врата между миром живых и миром мертвых. В этот день зло практически всесильно…
Во время ночного праздничного парада в Нью-Йорке у профессора Майка Кола бесследно пропадает его маленький сын. Полиции не удается найти ребенка, однако после собственного расследования отец узнает, что некое мощное древнее проклятие забирает детей каждый год. Чтобы вернуть себе своего сына, у него есть только один шанс — в ночь на Хэллоуин отправиться по ту сторону врат тьмы….

Тип релиза: BDRip 1080p
Контейнер: MKV
Видео: MPEG-4 AVC, 16,5 Мбит/с, 1920x800, 23,976 fps
Аудио: Rus, AC3, 384 kb/s (6 ch), 48 kHz
Аудио 2: Eng, DTS, 1510 kb/s (6 ch), 48 kHz
Формат субтитров: softsub (SRT)

MediaInfo

x264 [info]: frame I:775   Avg QP:13.37  size:210513
x264 [info]: frame P:29314 Avg QP:14.41  size:124466
x264 [info]: frame B:105293 Avg QP:16.55  size: 76974
Format                         : Matroska
Format version                 : Version 4 / Version 2
File size                      : 12.3 GiB
Duration                       : 1h 34mn
Overall bit rate               : 18.8 Mbps
Movie name                     : Врата тьмы. (Tonik)
Encoded date                   : UTC 2015-10-24 07:56:13
Writing application            : mkvmerge v7.1.0 ('Good Love') 64bit built on Jul 27 2014 13:06:55
Writing library                : libebml v1.3.0 + libmatroska v1.4.1
_STATISTICS_WRITING_APP        : mkvmerge v7.1.0 ('Good Love') 64bit built on Jul 27 2014 13:06:55
_STATISTICS_WRITING_DATE_UTC   : 2015-10-24 07:56:13
_STATISTICS_TAGS               : BPS DURATION NUMBER_OF_FRAMES NUMBER_OF_BYTES
DURATION                       : 01:34:06.592000000
NUMBER_OF_FRAMES               : 176456
NUMBER_OF_BYTES                : 271036416
Video
ID                             : 1
Format                         : AVC
Format/Info                    : Advanced Video Codec
Format profile                 : [email protected]
Format settings, CABAC         : Yes
Format settings, ReFrames      : 5 frames
Codec ID                       : V_MPEG4/ISO/AVC
Duration                       : 1h 34mn
Bit rate                       : 16.5 Mbps
Width                          : 1 920 pixels
Height                         : 800 pixels
Display aspect ratio           : 2.40:1
Frame rate mode                : Constant
Frame rate                     : 23.976 fps
Color space                    : YUV
Chroma subsampling             : 4:2:0
Bit depth                      : 8 bits
Scan type                      : Progressive
Bits/(Pixel*Frame)             : 0.448
Stream size                    : 10.9 GiB (88%)
Writing library                : x264 core 146 r2538 121396c
Encoding settings              : cabac=1 / ref=5 / deblock=1:-3:-3 / analyse=0x3:0x133 / me=umh / subme=10 / psy=1 / psy_rd=1.00:0.00 / mixed_ref=1 / me_range=32 / chroma_me=1 / trellis=2 / 8x8dct=1 / cqm=0 / deadzone=21,11 / fast_pskip=0 / chroma_qp_offset=-2 / threads=36 / lookahead_threads=6 / sliced_threads=0 / nr=0 / decimate=0 / interlaced=0 / bluray_compat=0 / constrained_intra=0 / bframes=11 / b_pyramid=2 / b_adapt=2 / b_bias=0 / direct=3 / weightb=1 / open_gop=0 / weightp=2 / keyint=240 / keyint_min=23 / scenecut=40 / intra_refresh=0 / rc_lookahead=100 / rc=crf / mbtree=0 / crf=16.3 / qcomp=0.60 / qpmin=0 / qpmax=69 / qpstep=4 / vbv_maxrate=62500 / vbv_bufsize=78125 / crf_max=0.0 / nal_hrd=none / filler=0 / ip_ratio=1.40 / pb_ratio=1.30 / aq=1:0.80
Language                       : English
Default                        : Yes
Forced                         : No
Audio #1
ID                             : 2
Format                         : AC-3
Format/Info                    : Audio Coding 3
Mode extension                 : CM (complete main)
Format settings, Endianness    : Big
Codec ID                       : A_AC3
Duration                       : 1h 34mn
Bit rate mode                  : Constant
Bit rate                       : 384 Kbps
Channel(s)                     : 6 channels
Channel positions              : Front: L C R, Side: L R, LFE
Sampling rate                  : 48.0 KHz
Bit depth                      : 16 bits
Compression mode               : Lossy
Stream size                    : 258 MiB (2%)
Title                          : iTunes
Language                       : Russian
Default                        : Yes
Forced                         : No
Audio #2
ID                             : 3
Format                         : DTS
Format/Info                    : Digital Theater Systems
Mode                           : 16
Format settings, Endianness    : Big
Codec ID                       : A_DTS
Duration                       : 1h 34mn
Bit rate mode                  : Constant
Bit rate                       : 1 509 Kbps
Channel(s)                     : 6 channels
Channel positions              : Front: L C R, Side: L R, LFE
Sampling rate                  : 48.0 KHz
Bit depth                      : 24 bits
Compression mode               : Lossy
Stream size                    : 1 016 MiB (8%)
Language                       : English
Default                        : No
Forced                         : No
Text
ID                             : 4
Format                         : UTF-8
Codec ID                       : S_TEXT/UTF8
Codec ID/Info                  : UTF-8 Plain Text
Language                       : English
Default                        : No
Forced                         : No
Menu
00:00:00.000                   : en:Chapter 1
00:07:42.629                   : en:Chapter 2
00:15:03.694                   : en:Chapter 3
00:25:59.308                   : en:Chapter 4
00:31:40.482                   : en:Chapter 5
00:38:20.089                   : en:Chapter 6
00:48:40.751                   : en:Chapter 7
00:58:50.527                   : en:Chapter 8
01:06:41.539                   : en:Chapter 9
01:12:39.063                   : en:Chapter 10
01:16:41.847                   : en:Chapter 11
01:28:33.558                   : en:Chapter 12

Скриншоты:

Яндекс.Метрика
Рейтинг@Mail.ru