Железная девушка: Убийственное оружие / Iron Girl: Ultimate Weapon (2015) BDRip 720p | L2

 

Создавать темы 24-Окт-2015 10:58

Железная девушка: Убийственное оружие / Iron Girl: Ultimate WeaponГод выхода: 2015
Жанр: фантастика, боевик, комедия, эротика
Режиссер: Кенити Фудзивара
В ролях:
Асами, Кирара Асука, Хироаки Иванага, Рюносукэ Кавай, Асука Киши, Юри Моришита
О фильме:
В недалеком будущем, в мире царит беззаконие, человечество находится на грани вымирания, а города контролируют банды головорезов. Курису Саотоме (Асука Кирара) – наемная убийца. Она носит бронированный костюм, обладающий большой силой, и известна под именем «Стальная телка». Курису Саотоме не помнит кто она и откуда приехала. Чтобы восстановить память, она продолжает свою одинокую борьбу, истребляя головорезов.


Выпущено: Япония / Shibuya Productions
Продолжительность: 01:24:01
Озвучивание: Любительское (двухголосое) [den904 & DeadSno], перевод [akira9]
Файл
Формат: MKV
Качество: BDRip 720p
Видео: MPEG-4 AVC, 4816 kb/s, 1280x720
Аудио: Russian: AC3, 192 kb/s (2 ch) / Japanese: AC3, 640 kb/s (6 ch)
Субтитры: Chinese

MI

Format                         : Matroska
Format version                 : Version 2
File size                      : 3.32 GiB
Duration                       : 1h 24mn
Overall bit rate               : 5 650 Kbps
Movie name                     : Jubowo @ WiKi
Encoded date                   : UTC 2015-10-23 10:24:49
Writing application            : mkvmerge v7.8.0 ('River Man') 32bit built on Apr  3 2015 12:11:22
Writing library                : libebml v1.3.1 + libmatroska v1.4.2
Video
ID                             : 1
Format                         : AVC
Format/Info                    : Advanced Video Codec
Format profile                 : [email protected]
Format settings, CABAC         : Yes
Format settings, ReFrames      : 9 frames
Codec ID                       : V_MPEG4/ISO/AVC
Duration                       : 1h 24mn
Bit rate                       : 4 816 Kbps
Width                          : 1 280 pixels
Height                         : 720 pixels
Display aspect ratio           : 16:9
Frame rate mode                : Constant
Frame rate                     : 23.976 fps
Color space                    : YUV
Chroma subsampling             : 4:2:0
Bit depth                      : 8 bits
Scan type                      : Progressive
Bits/(Pixel*Frame)             : 0.218
Stream size                    : 2.76 GiB (83%)
Writing library                : x264 core 129 r2245+704+36 8e61944 tMod+MixAQ [[email protected]:2:0 X86_64]
Encoding settings              : cabac=1 / ref=9 / deblock=1:-3:-3 / analyse=0x3:0x133 / me=umh / subme=11 / psy=1 / fade_compensate=0.00 / psy_rd=1.05:0.10 / mixed_ref=1 / me_range=32 / chroma_me=1 / trellis=2 / 8x8dct=1 / cqm=0 / deadzone=21,11 / fast_pskip=0 / chroma_qp_offset=-3 / threads=12 / lookahead_threads=2 / sliced_threads=0 / nr=0 / decimate=0 / interlaced=0 / bluray_compat=0 / constrained_intra=0 / fgo=0 / bframes=10 / b_pyramid=2 / b_adapt=2 / b_bias=0 / direct=3 / weightb=1 / open_gop=0 / weightp=2 / keyint=250 / keyint_min=23 / scenecut=40 / intra_refresh=0 / rc_lookahead=80 / rc=2pass / mbtree=1 / bitrate=4816 / ratetol=1.0 / qcomp=0.70 / qpmin=0 / qpmax=69 / qpstep=4 / cplxblur=20.0 / qblur=0.5 / ip_ratio=1.40 / aq=1 / aq-strength=0.85 / aq-sensitivity=10.00 / aq-ifactor=1.00 / aq-pfactor=1.00 / aq-bfactor=1.00 / aq2=0
Language                       : Japanese
Default                        : Yes
Forced                         : No
Audio #1
ID                             : 2
Format                         : AC-3
Format/Info                    : Audio Coding 3
Mode extension                 : CM (complete main)
Format settings, Endianness    : Big
Codec ID                       : A_AC3
Duration                       : 1h 24mn
Bit rate mode                  : Constant
Bit rate                       : 192 Kbps
Channel(s)                     : 2 channels
Channel positions              : Front: L R
Sampling rate                  : 48.0 KHz
Bit depth                      : 16 bits
Compression mode               : Lossy
Stream size                    : 115 MiB (3%)
Title                          : den904 & DeadSno
Language                       : Russian
Default                        : Yes
Forced                         : No
Audio #2
ID                             : 3
Format                         : AC-3
Format/Info                    : Audio Coding 3
Mode extension                 : CM (complete main)
Format settings, Endianness    : Big
Codec ID                       : A_AC3
Duration                       : 1h 24mn
Bit rate mode                  : Constant
Bit rate                       : 640 Kbps
Channel(s)                     : 6 channels
Channel positions              : Front: L C R, Side: L R, LFE
Sampling rate                  : 48.0 KHz
Bit depth                      : 16 bits
Compression mode               : Lossy
Stream size                    : 385 MiB (11%)
Language                       : Japanese
Default                        : No
Forced                         : No
Text #1
ID                             : 4
Format                         : UTF-8
Codec ID                       : S_TEXT/UTF8
Codec ID/Info                  : UTF-8 Plain Text
Title                          : Siplified
Language                       : Chinese
Default                        : No
Forced                         : No
Text #2
ID                             : 5
Format                         : UTF-8
Codec ID                       : S_TEXT/UTF8
Codec ID/Info                  : UTF-8 Plain Text
Title                          : Traditional
Language                       : Chinese
Default                        : No
Forced                         : No
Menu
00:00:00.000                   : en:00:00:00.000
00:08:15.194                   : en:00:08:15.194
00:14:28.534                   : en:00:14:28.534
00:22:01.320                   : en:00:22:01.320
00:28:40.618                   : en:00:28:40.618
00:35:21.752                   : en:00:35:21.752
00:42:08.592                   : en:00:42:08.592
00:50:05.002                   : en:00:50:05.002
00:57:21.805                   : en:00:57:21.805
01:06:58.514                   : en:01:06:58.514
01:12:20.502                   : en:01:12:20.502
01:21:01.923                   : en:01:21:01.923

Скриншоты:

Яндекс.Метрика
Рейтинг@Mail.ru