Ускорение / Momentum (2015) WEB-DLRip-AVC | iTunes

 

Создавать темы 24-Окт-2015 10:51

Ускорение / MomentumГод выхода: 2015
Жанр: Боевик, триллер
Режиссер: Стивен С. Кампанелли
В ролях:
Ольга Куриленко, Морган Фримен, Джеймс Пьюрфой, Дженна Сарас, Сабина Палфи, Карл Танинг, Ли-Энн Саммерс, Эйдан Уайток, Мэриэн Фризелл, Грег Кри
О фильме:
Алекс, опытная воровка, соглашается совершить свое последнее ограбление... Но все идет не по плану. Теперь ей - красивой, сильной и безжалостной femme fatale - угрожает опасность. И неудачное ограбление - не единственная проблема. Она перешла дорогу секретному международному синдикату, который ищет нечто более ценное, чем бриллианты. С этого момента для Алекс единственный способ спастись - бежать. И как можно быстрее.

Страна: США, ЮАР
Студия: Azari Media, Thaba Media
Продолжительность: 01:32:02
Перевод: Дублированный (iTunes)
Файл
Кодек: MPEG-4 AVC
Качество: WEB-DLRip-AVC
Видео: 1800 Кбит/с, 1024х432, 25 кадр/с
Звук: Русский (AC3, 2 ch, 192 Кбит/с), английский (АС3, 6 ch, 384 Кбит/с)
Субтитры: Английские

Релиз

Рип от StarbirS
Aудио#1: Russian: 48 kHz, AC3, 2 (L,R) ch, ~192.00 kbps avg - Дублированный (iTunes)
Аудио#2: English: 48 kHz, AC3, 3/2 (L,C,R,l,r) + LFE ch, ~384.00 kbps avg - Оригинал
Субтитры: Английские
x264 [info]: frame I:1742 Avg QP:16.39 size: 49887
x264 [info]: frame P:39308 Avg QP:19.51 size: 16492
x264 [info]: frame B:96885 Avg QP:20.94 size: 5217

Инфо-файл

Формат : Matroska
Версия формата : Version 2
Размер файла : 1,53 Гбайт
Продолжительность : 1 ч. 32 м.
Общий поток : 2375 Кбит/сек
Название фильма : Momentum.2015.x264.WEB-DLRip.AVC.Rus.Eng
Дата кодирования : UTC 2015-10-23 09:48:38
Программа кодирования : mkvmerge v7.9.0 ('Birds') 64bit
Библиотека кодирования : libebml v1.3.1 + libmatroska v1.4.2
DURATION : 01:24:39.080000000
NUMBER_OF_FRAMES : 1192
NUMBER_OF_BYTES : 30991
_STATISTICS_WRITING_APP : mkvmerge v7.1.0 ('Good Love') 64bit built on Jul 27 2014 13:06:55
_STATISTICS_WRITING_DATE_UTC : 2015-10-22 20:19:48
_STATISTICS_TAGS : BPS DURATION NUMBER_OF_FRAMES NUMBER_OF_BYTES
Видео
Идентификатор : 1
Формат : AVC
Формат/Информация : Advanced Video Codec
Профиль формата : [email protected]
Параметр CABAC формата : Да
Параметр ReFrames формата : 12 кадров
Идентификатор кодека : V_MPEG4/ISO/AVC
Продолжительность : 1 ч. 32 м.
Битрейт : 1800 Кбит/сек
Ширина : 1024 пикселя
Высота : 432 пикселя
Соотношение сторон : 2,40:1
Режим частоты кадров : Постоянный
Частота кадров : 25,000 кадров/сек
Цветовое пространство : YUV
Субдискретизация насыщенности : 4:2:0
Битовая глубина : 8 бит
Тип развёртки : Прогрессивная
Бит/(Пиксели*Кадры) : 0.163
Размер потока : 1,13 Гбайт (74%)
Заголовок : Momentum.2015.x264.WEB-DLRip.AVC.Rus.Eng.by.StarbirS
Библиотека кодирования : x264 core 148 r2597 e86f3a1
Настройки программы : cabac=1 / ref=12 / deblock=1:-3:-3 / analyse=0x3:0x113 / me=umh / subme=11 / psy=1 / psy_rd=1.05:0.15 / mixed_ref=1 / me_range=48 / chroma_me=1 / trellis=2 / 8x8dct=1 / cqm=0 / deadzone=21,11 / fast_pskip=0 / chroma_qp_offset=-3 / threads=12 / lookahead_threads=1 / sliced_threads=0 / nr=0 / decimate=0 / interlaced=0 / bluray_compat=0 / constrained_intra=0 / bframes=6 / b_pyramid=2 / b_adapt=2 / b_bias=0 / direct=3 / weightb=1 / open_gop=1 / weightp=2 / keyint=240 / keyint_min=23 / scenecut=40 / intra_refresh=0 / rc=2pass / mbtree=0 / bitrate=1800 / ratetol=1.0 / qcomp=0.60 / qpmin=0 / qpmax=69 / qpstep=4 / cplxblur=20.0 / qblur=0.5 / ip_ratio=1.40 / pb_ratio=1.30 / aq=1:0.80
Язык : English
Default : Да
Forced : Нет
Аудио #1
Идентификатор : 2
Формат : AC-3
Формат/Информация : Audio Coding 3
Расширение режима : CM (complete main)
Параметр Endianness формата : Big
Идентификатор кодека : A_AC3
Продолжительность : 1 ч. 32 м.
Вид битрейта : Постоянный
Битрейт : 192 Кбит/сек
Каналы : 2 канала
Расположение каналов : Front: L R
Частота : 48,0 КГц
Метод сжатия : С потерями
Размер потока : 126 Мбайт (8%)
Заголовок : Дублированный (iTunes)
Язык : Russian
Default : Да
Forced : Нет
Аудио #2
Идентификатор : 3
Формат : AC-3
Формат/Информация : Audio Coding 3
Расширение режима : CM (complete main)
Параметр Endianness формата : Big
Идентификатор кодека : A_AC3
Продолжительность : 1 ч. 32 м.
Вид битрейта : Постоянный
Битрейт : 384 Кбит/сек
Каналы : 6 каналов
Расположение каналов : Front: L C R, Side: L R, LFE
Частота : 48,0 КГц
Метод сжатия : С потерями
Размер потока : 253 Мбайт (16%)
Язык : English
Default : Нет
Forced : Нет
Текст
Идентификатор : 4
Формат : UTF-8
Идентификатор кодека : S_TEXT/UTF8
Идентификатор кодека/Информация : UTF-8 Plain Text
Язык : English
Default : Нет
Forced : Нет
Меню
00:00:00.000 : en:Глава 1
00:02:11.000 : en:Глава 2
00:08:50.000 : en:Глава 3
00:13:13.000 : en:Глава 4
00:22:12.000 : en:Глава 5
00:29:48.000 : en:Глава 6
00:34:07.000 : en:Глава 7
00:43:30.000 : en:Глава 8
00:52:50.000 : en:Глава 9
01:00:20.000 : en:Глава 10
01:11:16.000 : en:Глава 11
01:21:14.000 : en:Глава 12

Скриншоты:

Яндекс.Метрика
Рейтинг@Mail.ru