Палач бастард / The Bastard Executioner / Сезон: 1 / Серии: 1-6 из 10 (Пэрис Барклай, Билл Джирхарт, Кари Скогланд) [2015, драма, WEB-DL 1080p] MVO (NewStudio) + Original

 

Создавать темы 15-Окт-2015 11:04

--Палач Бастард
The Bastard Executioner
-Год выпуска: 2015
Страна: США
Жанр: драма
Продолжительность: 00:48:00-Перевод: Профессиональный (многоголосый, закадровый) (NewStudio)
Режиссер: Пэрис Барклай / Paris Barclay, Билл Джирхарт / Bill Gierhart, Кари Скогланд / Kari Skogland
В ролях:
Даррен Эванс (Ash y Goedwig), Этан Гриффитс (Luca Maddox), Ли Джонс (Wilkin Brattle), Стивен Мойер (Milus Corbett), Тимоти В. Мерфи (Father Ruskin), Элен Риз (Petra), Кэти Сагал (Annora of the Alders), Дэнни Сапани (Berber the Moor), Флора Спенсер-Лонгхерст (Baroness Lowry «Love» Aberffraw Ventris), Сэм Спруэлл (Toran Prichard), Курт Саттер (The Dark Mute), Сара Суини (Jessamy Maddox)-Описание: Рыцарь в армии короля Эдуарда I, сломленный ужасами войны, даёт обет никогда больше не браться за оружие. Но когда насилие и несправедливость находят его снова, он вынужден взять в руки самый кровавый меч из всех: меч палача.- --Релиз:
Перевод: Ирина Гвозденко-Все раздачи сериала | Семпл |-Качество: WEB-DL 1080p
Контейнер: MKV
Видео: H.264, 1916x1076 [16:9], 23.976 fps, 4 924 kbps, 0.100 bit/pixel
Аудио №1: AC3, 48 kHz, 6 ch, 384 kbps [NewStudio]
Аудио №2: AC3, 48 kHz, 6 ch, 384 kbps [Original]
Субтитры: отсутствуют-

Скриншоты

MediaInfo

General
Unique ID : 228427190713843707531186099275229378265 (0xABD97A07190C8355AA021C54E44D36D9)
Complete name : /Downloads/The.Bastard.Executioner.s01e01.WEBDL.1080p.NewStudio.TV.mkv
Format : Matroska
Format version : Version 4 / Version 2
File size : 1.96 GiB
Duration : 48mn 21s
Overall bit rate : 5 808 Kbps
Encoded date : UTC 2015-09-17 19:51:23
Writing application : mkvmerge v8.2.0 ('World of Adventure') 64bit
Writing library : libebml v1.3.1 + libmatroska v1.4.2
DURATION : 00:48:21.568000000
NUMBER_OF_FRAMES : 90674
NUMBER_OF_BYTES : 139275264
_STATISTICS_WRITING_APP : mkvmerge v8.2.0 ('World of Adventure') 64bit
_STATISTICS_WRITING_DATE_UTC : 2015-09-17 19:51:23
_STATISTICS_TAGS : BPS DURATION NUMBER_OF_FRAMES NUMBER_OF_BYTES
Video
ID : 1
Format : AVC
Format/Info : Advanced Video Codec
Format profile : [email protected]
Format settings, CABAC : Yes
Format settings, ReFrames : 4 frames
Codec ID : V_MPEG4/ISO/AVC
Duration : 48mn 21s
Bit rate : 4 924 Kbps
Width : 1 916 pixels
Height : 1 076 pixels
Display aspect ratio : 16:9
Frame rate mode : Constant
Frame rate : 23.976 fps
Color space : YUV
Chroma subsampling : 4:2:0
Bit depth : 8 bits
Scan type : Progressive
Bits/(Pixel*Frame) : 0.100
Stream size : 1.66 GiB (85%)
Language : English
Default : Yes
Forced : No
Color primaries : BT.709
Transfer characteristics : BT.709
Matrix coefficients : BT.709
Audio #1
ID : 2
Format : AC-3
Format/Info : Audio Coding 3
Mode extension : CM (complete main)
Format settings, Endianness : Big
Codec ID : A_AC3
Duration : 48mn 21s
Bit rate mode : Constant
Bit rate : 384 Kbps
Channel(s) : 6 channels
Channel positions : Front: L C R, Side: L R, LFE
Sampling rate : 48.0 KHz
Bit depth : 16 bits
Compression mode : Lossy
Stream size : 133 MiB (7%)
Language : Russian
Default : Yes
Forced : Yes
Audio #2
ID : 3
Format : AC-3
Format/Info : Audio Coding 3
Mode extension : CM (complete main)
Format settings, Endianness : Big
Codec ID : A_AC3
Duration : 48mn 21s
Bit rate mode : Constant
Bit rate : 384 Kbps
Channel(s) : 6 channels
Channel positions : Front: L C R, Side: L R, LFE
Sampling rate : 48.0 KHz
Bit depth : 16 bits
Compression mode : Lossy
Stream size : 133 MiB (7%)
Language : English
Default : No
Forced : No
-

Внимание! Раздача ведётся путём добавления новых серий

Внимание! Раздача ведётся путём добавления новых серий; при каждом добавлении создаётся новый торрент. Чтобы начать докачку новой серии, пользователям необходимо сделать следующее: (1) остановить скачивание, (2) удалить старый торрент у себя из клиента (старые серии удалять не надо), (3) скачать новый торрент и запустить его у себя в клиенте вместо старого, при этом указать клиенту путь в старую папку куда и должно происходить скачивание новых серий.
Ваш клиент при этом должен произвести хеширование (проверку) старой папки (если не производит сам - помогите ему сделать это), и будет докачивать только те серии которых у вас ещё нет. Старые серии при этом не удаляются, а продолжают раздаваться!
Eсли вы уже удалили старые серии, то предотвратить повторную закачку старых серий можно, отжав галочку в соответствующих местах при запуске нового торрента.
Яндекс.Метрика
Рейтинг@Mail.ru