[ Сегодня на трекере фрилич! Идет свободное скачивание без начисления Download ]

Ultrasone - S-Logic Demo-CD (2008) [FLAC|Lossless]<Audiofile, Test>

 

Создавать темы 13-Окт-2015 12:46

Ultrasone - S-Logic Demo-CD - Год: нет информации
Жанр: Audiofile, Test
Продолжительность: 00:49:52
Кодек: FLAC (tracks+.cue)
Битрейт: Lossless
Источник: Glebany Собственный рип
Издатель (лейбл): нет информации
Номер по каталогу: нет информации
Треклист:
01 "Sileypud", New Haranni Poison Mixers - excerpt (John Barnes)
02 "Auf Geht's - Ab Geht's", Tripercussion Nr. 06 - excerpt (Th. Keems)
03 "Applaus", Baglioni (Soundclip, Ultrasone Production)
04 "Ave Verum Corpus", (W.A. Mozart, KV 618) - DISTORTS! 0:45-0:46
05 "Rondo Allegro", Sonate Nr. 8, B. L. Gelber (Ludvig van Beethoven, C Min. Opus 13) - DISTORTS! 1:08
06 "Wellen Am Sandstrand", (Soundclip, Ultrasone Production)
07 "Also Sprach Zarathustra", Staccato 2, Nr. 12 (R. Strauss, Opus 30)
08 "Chakraphon-Improvisation I", (Ultrasone Production)
09 "Andate Arghetto", Concerto No. 2 (G.F. Handel)
10 "Wie Schon Leuchtet Der morgenstern", (J.S. Bach, BWV 172/6)
11 "Feuerwerk 2002", (Soundclip - excerpt, Ultrasone Production)
12 "Gassenhauer", Capella Antica (Anonymous)
13 "Vogel La Palma", (Soundclip, Ultrasone Production)
14 "Chakraphon-Improvisation II", (Ultrasone Production) - DISTORTS! - 1:33
15 "Mis Buerli Geit Uber Sapurnerstag I", Tritonus (Otto v. Greyerz)
16 "Harfe + Flote", Germeringer Liedertafel - excerpt (J. S. Bach)
17 "Verbum Caro Factum Est", Capella Antica Bambergiensis (Cancionero De Uppsala)
18 "Grille", (Soundclip, Ultrasone Production)
19 "Herrscher Des Himmels Erhore Das lallen". Weihnacthsoratorium Nr. 24, Projektor Iffeldorf (J. S. Bach)
20 "Brandung", (Soundclip - excerpt, Ultrasone Production)
Тестовые треки компании ULTRASONE для оценки качества работы связки наушники+усилитель.
Некоторые преднамеренно имеют искажения, что отмечено.

Отчёт ЕАС&#58;

Exact Audio Copy V1.0 beta 3 from 29. August 2011
Отчёт EAC об извлечении, выполненном 19. января 2014, 20:37
Various Artists / Ultrasone S-Logic Demo-CD
Дисковод: HL-DT-STDVDRAM GT51N   Adapter: 0  ID: 0
Режим чтения                 : Достоверность
Использование точного потока : Да
Отключение кэша аудио        : Да
Использование указателей C2  : Нет
Коррекция смещения при чтении                     : 103
Способность читать области Lead-in и Lead-out     : Нет
Заполнение пропущенных сэмплов тишиной            : Да
Удаление блоков с тишиной в начале и конце        : Нет
При вычислениях CRC использовались нулевые сэмплы : Да
Интерфейс                                         : Установленный внешний ASPI-интерфейс
Обработка зазоров                                 : Добавлено к предыдущему треку
Выходной формат          : Пользовательский кодировщик
Выбранный битрейт        : 128 kBit/s
Качество                 : Высокий
Добавление ID3-тега      : Нет
Утилита сжатия           : C:\Program Files (x86)\Exact Audio Copy\Flac\flac.exe
Дополнительные параметры : -V -8 -T "Date=%year%" -T "Genre=%genre%" %source%
TOC извлечённого CD
     Трек |   Старт  | Длительность | Начальный сектор | Конечный сектор
    ---------------------------------------------------------------------
       1  |  0:00.00 |    2:14.36   |           0      |      10085
       2  |  2:14.36 |    1:24.07   |       10086      |      16392
       3  |  3:38.43 |    0:23.00   |       16393      |      18117
       4  |  4:01.43 |    2:34.30   |       18118      |      29697
       5  |  6:35.73 |    4:20.67   |       29698      |      49264
       6  | 10:56.65 |    2:09.16   |       49265      |      58955
       7  | 13:06.06 |    1:43.46   |       58956      |      66726
       8  | 14:49.52 |    6:22.32   |       66727      |      95408
       9  | 21:12.09 |    2:40.40   |       95409      |     107448
      10  | 23:52.49 |    4:14.00   |      107449      |     126498
      11  | 28:06.49 |    3:27.72   |      126499      |     142095
      12  | 31:34.46 |    0:54.73   |      142096      |     146218
      13  | 32:29.44 |    1:43.29   |      146219      |     153972
      14  | 34:12.73 |    2:41.35   |      153973      |     166082
      15  | 36:54.33 |    1:36.11   |      166083      |     173293
      16  | 38:30.44 |    3:57.73   |      173294      |     191141
      17  | 42:28.42 |    2:32.72   |      191142      |     202613
      18  | 45:01.39 |    0:47.58   |      202614      |     206196
      19  | 45:49.22 |    1:57.38   |      206197      |     215009
      20  | 47:46.60 |    2:05.35   |      215010      |     224419
Трек  1
     Имя файла C:\Users\Egorich\Desktop\Ultrasone S-Logic Demo-CD\01 Sileypud (excerpt).wav
     Длина предзазора  0:00:02.00
     Пиковый уровень 100.0 %
     Скорость извлечения 2.5 X
     Качество трека 100.0 %
     CRC теста 3B0EEBB3
     CRC копии 3B0EEBB3
     Точное извлечение (достоверность 17)  [169CEC58]  (AR v2)
     Копирование... OK
Трек  2
     Имя файла C:\Users\Egorich\Desktop\Ultrasone S-Logic Demo-CD\02 Auf geht's - ab geht's (Tripercussion Nr. 6, excerpt).wav
     Пиковый уровень 100.0 %
     Скорость извлечения 2.4 X
     Качество трека 100.0 %
     CRC теста 3954DDB9
     CRC копии 3954DDB9
     Точное извлечение (достоверность 17)  [72960064]  (AR v2)
     Копирование... OK
Трек  3
     Имя файла C:\Users\Egorich\Desktop\Ultrasone S-Logic Demo-CD\03 Applaus (soundclip, Ultrasone production).wav
     Пиковый уровень 44.6 %
     Скорость извлечения 1.3 X
     Качество трека 100.0 %
     CRC теста 6DD46CB2
     CRC копии 6DD46CB2
     Точное извлечение (достоверность 17)  [491621A6]  (AR v2)
     Копирование... OK
Трек  4
     Имя файла C:\Users\Egorich\Desktop\Ultrasone S-Logic Demo-CD\04 Ave verum Corpus (KV 618).wav
     Пиковый уровень 100.0 %
     Скорость извлечения 2.9 X
     Качество трека 100.0 %
     CRC теста 90EA49BD
     CRC копии 90EA49BD
     Точное извлечение (достоверность 17)  [8A5FAFE7]  (AR v2)
     Копирование... OK
Трек  5
     Имя файла C:\Users\Egorich\Desktop\Ultrasone S-Logic Demo-CD\05 Rondo Allegro (Sonate Nr. 8, C-Min. Op. 13).wav
     Пиковый уровень 100.0 %
     Скорость извлечения 3.4 X
     Качество трека 100.0 %
     CRC теста DCC41C16
     CRC копии DCC41C16
     Точное извлечение (достоверность 17)  [57E700A9]  (AR v2)
     Копирование... OK
Трек  6
     Имя файла C:\Users\Egorich\Desktop\Ultrasone S-Logic Demo-CD\06 Wellen am Sandstand (soundclip, Ultrasone production).wav
     Пиковый уровень 56.2 %
     Скорость извлечения 3.3 X
     Качество трека 100.0 %
     CRC теста 9902744A
     CRC копии 9902744A
     Точное извлечение (достоверность 17)  [59A7D2CB]  (AR v2)
     Копирование... OK
Трек  7
     Имя файла C:\Users\Egorich\Desktop\Ultrasone S-Logic Demo-CD\07 Also sprach Zarathustra (Staccato 2, Nr. 12, Op. 30).wav
     Пиковый уровень 100.0 %
     Скорость извлечения 3.2 X
     Качество трека 100.0 %
     CRC теста 76FF761E
     CRC копии 76FF761E
     Точное извлечение (достоверность 17)  [53920901]  (AR v2)
     Копирование... OK
Трек  8
     Имя файла C:\Users\Egorich\Desktop\Ultrasone S-Logic Demo-CD\08 Chakraphon-Imrovisation I (Ultrasone production).wav
     Пиковый уровень 100.0 %
     Скорость извлечения 3.7 X
     Качество трека 99.9 %
     CRC теста 6B9A923A
     CRC копии 6B9A923A
     Точное извлечение (достоверность 17)  [28F39CCF]  (AR v2)
     Копирование... OK
Трек  9
     Имя файла C:\Users\Egorich\Desktop\Ultrasone S-Logic Demo-CD\09 Andante larghetto (Conerto No. 2).wav
     Пиковый уровень 93.5 %
     Скорость извлечения 4.0 X
     Качество трека 100.0 %
     CRC теста 72FBDC54
     CRC копии 72FBDC54
     Точное извлечение (достоверность 17)  [F4EF7EB0]  (AR v2)
     Копирование... OK
Трек 10
     Имя файла C:\Users\Egorich\Desktop\Ultrasone S-Logic Demo-CD\10 Wie schön leuchtet der Morgenstern (BWV 172,6).wav
     Пиковый уровень 100.0 %
     Скорость извлечения 4.5 X
     Качество трека 100.0 %
     CRC теста B2C215D5
     CRC копии B2C215D5
     Точное извлечение (достоверность 17)  [B339EF62]  (AR v2)
     Копирование... OK
Трек 11
     Имя файла C:\Users\Egorich\Desktop\Ultrasone S-Logic Demo-CD\11 Feuerwerk 2002 (soundclip - excerpt, Ultrasone production).wav
     Пиковый уровень 100.0 %
     Скорость извлечения 4.6 X
     Качество трека 100.0 %
     CRC теста 99456710
     CRC копии 99456710
     Точное извлечение (достоверность 16)  [858983AE]  (AR v2)
     Копирование... OK
Трек 12
     Имя файла C:\Users\Egorich\Desktop\Ultrasone S-Logic Demo-CD\12 Gassenhauer.wav
     Пиковый уровень 100.0 %
     Скорость извлечения 3.1 X
     Качество трека 100.0 %
     CRC теста D37E7942
     CRC копии D37E7942
     Точное извлечение (достоверность 16)  [08CDC753]  (AR v2)
     Копирование... OK
Трек 13
     Имя файла C:\Users\Egorich\Desktop\Ultrasone S-Logic Demo-CD\13 Vögel La Palma (soundclip, Ultrasone production).wav
     Пиковый уровень 25.1 %
     Скорость извлечения 4.1 X
     Качество трека 100.0 %
     CRC теста BB8A1769
     CRC копии BB8A1769
     Точное извлечение (достоверность 16)  [283BA246]  (AR v2)
     Копирование... OK
Трек 14
     Имя файла C:\Users\Egorich\Desktop\Ultrasone S-Logic Demo-CD\14 Chakraphon-Improvisation II (Ultrasone production).wav
     Пиковый уровень 100.0 %
     Скорость извлечения 4.7 X
     Качество трека 100.0 %
     CRC теста FBEEB756
     CRC копии FBEEB756
     Точное извлечение (достоверность 16)  [7C63D6AD]  (AR v2)
     Копирование... OK
Трек 15
     Имя файла C:\Users\Egorich\Desktop\Ultrasone S-Logic Demo-CD\15 Mis Büerli geit über Sapürnerstäg i (Tritonus).wav
     Пиковый уровень 100.0 %
     Скорость извлечения 4.1 X
     Качество трека 100.0 %
     CRC теста 1AD88439
     CRC копии 1AD88439
     Точное извлечение (достоверность 16)  [94915200]  (AR v2)
     Копирование... OK
Трек 16
     Имя файла C:\Users\Egorich\Desktop\Ultrasone S-Logic Demo-CD\16 Harfe + Flöte (excerpt).wav
     Пиковый уровень 86.6 %
     Скорость извлечения 5.1 X
     Качество трека 100.0 %
     CRC теста 3F38761B
     CRC копии 3F38761B
     Точное извлечение (достоверность 16)  [DF1E9F0D]  (AR v2)
     Копирование... OK
Трек 17
     Имя файла C:\Users\Egorich\Desktop\Ultrasone S-Logic Demo-CD\17 Verbum caro factum est.wav
     Пиковый уровень 100.0 %
     Скорость извлечения 4.9 X
     Качество трека 100.0 %
     CRC теста E36DDC97
     CRC копии E36DDC97
     Точное извлечение (достоверность 16)  [5AB21F5F]  (AR v2)
     Копирование... OK
Трек 18
     Имя файла C:\Users\Egorich\Desktop\Ultrasone S-Logic Demo-CD\18 Grille (soundclip, Ultrasone production).wav
     Пиковый уровень 19.9 %
     Скорость извлечения 1.9 X
     Качество трека 99.7 %
     CRC теста 78FA3837
     CRC копии 78FA3837
     Точное извлечение (достоверность 16)  [4E27E3A4]  (AR v2)
     Копирование... OK
Трек 19
     Имя файла C:\Users\Egorich\Desktop\Ultrasone S-Logic Demo-CD\19 Herrscher des Himmels erhöre das Lallen (Weihnachtsoratorium, Nr. 24).wav
     Пиковый уровень 100.0 %
     Скорость извлечения 2.6 X
     Качество трека 99.9 %
     CRC теста 49BE0BE5
     CRC копии 49BE0BE5
     Точное извлечение (достоверность 16)  [08879374]  (AR v2)
     Копирование... OK
Трек 20
     Имя файла C:\Users\Egorich\Desktop\Ultrasone S-Logic Demo-CD\20 Brandung (soundclip - excerpt, Ultrasone production).wav
     Пиковый уровень 100.0 %
     Скорость извлечения 3.5 X
     Качество трека 100.0 %
     CRC теста FCE5E421
     CRC копии FCE5E421
     Точное извлечение (достоверность 16)  [51386DDF]  (AR v2)
     Копирование... OK
Все треки извлечены точно
Ошибок не произошло
Конец отчёта
==== Контрольная сумма отчёта 181F2637A8E02AB88AF701A2122A1AC86214EB0F7AE435CA6523ED61F568EBEA ====

Отчёт auCDtect Task manager&#58;

-----------------------
DON'T MODIFY THIS FILE
-----------------------
PERFORMER: auCDtect Task Manager, ver. 1.6.0 RC1 build 1.6.0.1
Copyright (c) 2008-2010 y-soft. All rights reserved
http://y-soft.org
ANALYZER: auCDtect: CD records authenticity detector, version 0.8.2
Copyright (c) 2004 Oleg Berngardt. All rights reserved.
Copyright (c) 2004 Alexander Djourik. All rights reserved.
FILE: 20 Brandung (soundclip - excerpt, Ultrasone production).flac
  Size: 16405279 Hash: 8D1571A067679CF39B38D4EB0E6445FD Accuracy: -m0
  Conclusion: CDDA 100%
  Signature: CE19A3022F0E83998F87CBF07E240BCF0F8378FC
FILE: 19 Herrscher des Himmels erhöre das Lallen (Weihnachtsoratorium, Nr. 24).flac
  Size: 10685932 Hash: C62DD0F5BD8BB53D2704F0B9DBFA1BD9 Accuracy: -m0
  Conclusion: CDDA 85%
  Signature: 02B7CEA3C05ECCC4A6C3157B9E36503B154B59B9
FILE: 18 Grille (soundclip, Ultrasone production).flac
  Size: 4184270 Hash: F5A10A4E06A86012FD393AA76F3584AB Accuracy: -m0
  Conclusion: MPEG 95%
  Signature: 797CC568610DB177D9C51B98AAC74424AA62904E
FILE: 17 Verbum caro factum est.flac
  Size: 12963342 Hash: 217F404C2C0F75DDE385728DC60669CE Accuracy: -m0
  Conclusion: CDDA 100%
  Signature: A6B0A3035319DABFA6DB5221AF79603085BD8DD9
FILE: 16 Harfe + Flöte (excerpt).flac
  Size: 20028498 Hash: CD8A5D144992629AB387D91116595E2F Accuracy: -m0
  Conclusion: CDDA 99%
  Signature: 156CB21A0428978D94127FD356E24CD88EFCA9F7
FILE: 15 Mis Büerli geit über Sapürnerstäg i (Tritonus).flac
  Size: 8765201 Hash: 8090DA7F44409AA1C2E149C43CADA25B Accuracy: -m0
  Conclusion: CDDA 100%
  Signature: A5C93A33BF83F4B802FFDC65284423304B9A73D3
FILE: 14 Chakraphon-Improvisation II (Ultrasone production).flac
  Size: 11274242 Hash: 1FA8C53CE0B022F2483E3D08D0512CFD Accuracy: -m0
  Conclusion: CDDA 43%
  Signature: 3AEFC0E858F76237316B960A87F1971EA9AE0FB1
FILE: 13 Vögel La Palma (soundclip, Ultrasone production).flac
  Size: 9470699 Hash: B2D88449189313472B821604C933C204 Accuracy: -m0
  Conclusion: MPEG 95%
  Signature: 342F5FB29FEE8E4CAB2C59BBD8F5EF67FD1D8067
FILE: 12 Gassenhauer.flac
  Size: 6009611 Hash: EE8F9CC29347445C5EEFC84D53B991A8 Accuracy: -m0
  Conclusion: CDDA 100%
  Signature: 72304DACA4CFE58D99D60C610ABEAC57FBF09513
FILE: 11 Feuerwerk 2002 (soundclip - excerpt, Ultrasone production).flac
  Size: 18710384 Hash: 732E0804B147647C01CCC9F73A2143E2 Accuracy: -m0
  Conclusion: CDDA 100%
  Signature: 8C443E7F055BDE2FC7106FB1716E3F3F78AEC54F
FILE: 10 Wie schön leuchtet der Morgenstern (BWV 172,6).flac
  Size: 21952270 Hash: F8447D0744C8C916CA9AC937F055DAD6 Accuracy: -m0
  Conclusion: CDDA 100%
  Signature: 664CE1F716D33D44AB7DF5A6D51431D769B8EB61
FILE: 09 Andante larghetto (Conerto No. 2).flac
  Size: 16789805 Hash: A8C66F3CE278961EC7BE50FC15DEAC7D Accuracy: -m0
  Conclusion: CDDA 100%
  Signature: 21F01E1A746DEF6B6FC42857B5854473B1E261D3
FILE: 08 Chakraphon-Imrovisation I (Ultrasone production).flac
  Size: 31444984 Hash: 1BE4B331566DA034EEAEB77EC1502783 Accuracy: -m0
  Conclusion: CDDA 100%
  Signature: 855F9CE3A1B940E88C00EABBDF3C36BE5B726AB7
FILE: 07 Also sprach Zarathustra (Staccato 2, Nr. 12, Op. 30).flac
  Size: 8607995 Hash: 2F94D124E2E4B7AD5E12AAB98CB741B0 Accuracy: -m0
  Conclusion: CDDA 100%
  Signature: F4C1CF25FE612E6FF67033FB1B4F2FECA8330FA7
FILE: 06 Wellen am Sandstand (soundclip, Ultrasone production).flac
  Size: 10851974 Hash: FA51D39126FA2079FB62A8D5FD868885 Accuracy: -m0
  Conclusion: CDDA 100%
  Signature: 19BAA75B3DD4F3E7B7250AC5441E8B078C3667C7
FILE: 05 Rondo Allegro (Sonate Nr. 8, C-Min. Op. 13).flac
  Size: 18650051 Hash: B223017162577BB09BFBA8A23C9BD3FE Accuracy: -m0
  Conclusion: MPEG 100%
  Signature: 0F3D2694DBD6222434790879E78EAB2A5DD8CCC2
FILE: 04 Ave verum Corpus (KV 618).flac
  Size: 12515923 Hash: 712A6362FE713B0F47A3FD1CBD2FD64F Accuracy: -m0
  Conclusion: CDDA 100%
  Signature: 6859CBEE3CD5F4C23FF0D45F1CCED4A1D6D68B3A
FILE: 03 Applaus (soundclip, Ultrasone production).flac
  Size: 2399188 Hash: 045A5EF0AF382EB4ADF1F1E4EAC6057D Accuracy: -m0
  Conclusion: CDDA 100%
  Signature: 133957B9FFB8FE62AEEF7B139887147C6483FA58
FILE: 02 Auf geht's - ab geht's (Tripercussion Nr. 6, excerpt).flac
  Size: 7747937 Hash: 9BD48B61FB6247BB32D544FB24FE5247 Accuracy: -m0
  Conclusion: CDDA 100%
  Signature: 961CA9370FB62C07A032A4EE3DE43F5D320CE5A8
FILE: 01 Sileypud (excerpt).flac
  Size: 11612925 Hash: E687D2EB03F7C462B9C2FE928D2C6EED Accuracy: -m0
  Conclusion: CDDA 100%
  Signature: 2DC777D43D917DCE1BF8E02D162DC94D56C11057

Спектрограмма&#58;

Яндекс.Метрика
Рейтинг@Mail.ru