Ходячие мертвецы / The Walking Dead / Сезон: 6 / Серии: 1 из 16 (Эрнест Р. Дикерсон, Грег Никотеро, Гай Ферленд) [2015, Ужасы, триллер, драма, WEB-DL 1080p] MVO (FOX)

 

Создавать темы 13-Окт-2015 00:59

-Ходячие мертвецы | The Walking Dead-- Год выпуска: 2014
Страна: США
Жанр: Ужасы, триллер, драма
Продолжительность: ~ 00:43:00-Перевод: Профессиональный (многоголосый закадровый) | FOX-Режиссёр: Эрнест Р. Дикерсон, Грег Никотеро, Гай Ферленд-В ролях: Эндрю Линкольн, Скотт Уилсон, Данай Джекесай Гурира, Дэвид Моррисси, Стивен Юн, Лорен Коэн, Чендлер Риггз, Норман Ридус, Мелисса Сюзанн МакБрайд, Эмили Кинни, Чад Коулмэн, Сонеква Мартин-Описание: Четвертый сезон "Ходячих Мертвецов" закончился на том, что Рик и его люди оказались в контейнере, в руках превосходящих их числом и оружием обитателей Терминуса. Пятый сезон начинается через некоторое время там же. Далее, в истории переплетаются настоящие мотивы людей из Терминуса с хрупкой надеждой на лекарство в Вашингтоне, судьбой затерявшихся членов группы и местных жителей, новых конфликтов и новых преград к сохранению группы и выживанию.- -| Ссылка на предыдущие и альтернативные раздачи-Качество: WEB-DL 1080p
Формат: MKV
Видео: AVC, 1920x1080 (16:9), 23.976 fps, ~5000 kbps
Аудио 1: AC3, 48 kHz, 2 ch, 192 kbps - Rus
Аудио 2: AC3, 48 kHz, 6 ch, 384 kbps - Eng
Субтитры: отсутствуют-

Релиз

подготовка релиза NewStudio

MediaInfo

Общее
Уникальный идентификатор                 : 219271664404625460602610709467916729611 (0xA4F62FBABEAC00BB9FE1C92A59CCFD0B)
Полное имя                               : X:\ATorrent\The.Walking.Dead.S06.WEB-DL.1080p.CasStudioTV\The.Walking.Dead.S06E01.WEB-DL.1080p.CasStudioTV.mkv
Формат                                   : Matroska
Версия формата                           : Version 4 / Version 2
Размер файла                             : 2,59 Гбайт
Продолжительность                        : 1 ч. 4 м.
Общий поток                              : 5727 Кбит/сек
Дата кодирования                         : UTC 2015-10-12 20:13:45
Программа кодирования                    : mkvmerge v6.9.1 ('Blue Panther') 32bit built on Apr 18 2014 18:15:44
Библиотека кодирования                   : libebml v1.3.0 + libmatroska v1.4.1
Attachements                             : small_cover.jpg / cover.jpg / cover_land.jpg / small_cover_land.jpg
Видео
Идентификатор                            : 1
Формат                                   : AVC
Формат/Информация                        : Advanced Video Codec
Профиль формата                          : [email protected]
Параметр CABAC формата                   : Да
Параметр ReFrames формата                : 4 кадра
Идентификатор кодека                     : V_MPEG4/ISO/AVC
Продолжительность                        : 1 ч. 4 м.
Битрейт                                  : 5037 Кбит/сек
Ширина                                   : 1916 пикселей
Высота                                   : 1076 пикселей
Соотношение сторон                       : 16:9
Режим частоты кадров                     : Постоянный
Частота кадров                           : 23,976 кадра/сек
Цветовое пространство                    : YUV
Субдискретизация насыщенности            : 4:2:0
Битовая глубина                          : 8 бит
Тип развёртки                            : Прогрессивная
Бит/(Пиксели*Кадры)                      : 0.102
Размер потока                            : 2,28 Гбайт (88%)
Язык                                     : English
Default                                  : Да
Forced                                   : Нет
Цветовой диапазон                        : Limited
Основные цвета                           : BT.709
Характеристики трансфера                 : BT.709
Коэффициенты матрицы                     : BT.709
Аудио #1
Идентификатор                            : 2
Формат                                   : AC-3
Формат/Информация                        : Audio Coding 3
Расширение режима                        : CM (complete main)
Параметр Endianness формата              : Big
Идентификатор кодека                     : A_AC3
Продолжительность                        : 1 ч. 4 м.
Вид битрейта                             : Постоянный
Битрейт                                  : 192 Кбит/сек
Каналы                                   : 2 канала
Расположение каналов                     : Front: L R
Частота                                  : 48,0 КГц
Метод сжатия                             : С потерями
Размер потока                            : 88,9 Мбайт (3%)
Заголовок                                : Fox
Язык                                     : Russian
Default                                  : Да
Forced                                   : Нет
Аудио #2
Идентификатор                            : 3
Формат                                   : AC-3
Формат/Информация                        : Audio Coding 3
Расширение режима                        : CM (complete main)
Параметр Endianness формата              : Big
Идентификатор кодека                     : A_AC3
Продолжительность                        : 1 ч. 4 м.
Вид битрейта                             : Постоянный
Битрейт                                  : 384 Кбит/сек
Каналы                                   : 6 каналов
Расположение каналов                     : Front: L C R, Side: L R, LFE
Частота                                  : 48,0 КГц
Метод сжатия                             : С потерями
Размер потока                            : 178 Мбайт (7%)
Заголовок                                : original
Язык                                     : English
Default                                  : Нет
Forced                                   : Нет
Текст
Идентификатор                            : 4
Формат                                   : UTF-8
Идентификатор кодека                     : S_TEXT/UTF8
Идентификатор кодека/Информация          : UTF-8 Plain Text
Заголовок                                : SDH-Removed
Язык                                     : English
Default                                  : Нет
Forced                                   : Нет

Скриншоты

Раздача ведется путем добавления новых серий

Когда раздача ведётся путём добавления новых серий, при каждом добавлении создётся новый торрент. Чтобы начать докачку новой серии, пользователям необходимо сделать следующее:
(1) остановить скачивание,
(2) удалить старый торрент у себя из клиента (старые серии удалять не надо),
(3) скачать новый торрент и запустить его у себя в клиенте вместо старого, при этом указать клиенту путь в старую папку, куда и должно происходить скачивание новых серий.
Ваш клиент при этом должен произвести хеширование (проверку) старой папки (если не производит сам - помогите ему сделать это), и будет докачивать только те серии, которых у вас ещё нет. Старые серии при этом не удаляются, а продолжают раздаваться!
Eсли вы уже удалили старые серии, то предотвратить повторную закачку старых серий можно, отжав галочку в соответсвующих местах при запуске нового торрента. По возможности, желательно не удалять старые серии как можно дольше, чтобы релизёр не столько продолжал раздавать старые серии, а смог сконцентрироваться на новых.
-
Яндекс.Метрика
Рейтинг@Mail.ru