Невинность / Uskyld (2012) BDRip [720p]

 

Создавать темы 19-Дек-2013 10:01

-Невинность / Uskyld (2012) BDRip [720p]- -Год выпуска: 2012
Производство: Норвегия / 4 1/2 Film, BOB Film Sweden AB, Windelov/Lassen
Жанр: Драма
Перевод: Любительский (одноголосый) [den904]
Язык субтитров: Английский
Вид субтитров: Вшитые, отключаемые-Дата мировой премьеры: 2 ноября 2012-Режиссер: Сара Джонсен
Продюсер: Турид Ёверсвеен, Анна Кронеман, Мариус Хольст
Актеры: Мария Бонневи, Кристоффер Йонер, Давид Денсик, Мария Хайсканен, Асмунд Хёг, Тронд Нильссен-Описание фильма:
После долгих лет разлуки Янне вновь встречает Уильяма. Когда-то они любили друг друга, и теперь на пару летних месяцев они решают снять лесной дом у реки. Между ними разгораются прежние чувства, но внезапно начинают происходить странные вещи: становится очевидно, что пару преследует Рууд, брат Уильяма. Спасаясь от него, Янне и Уильям оказываются всё дальше и дальше в лесу…- -Продолжительность: 01:40:59
Качество видео: BDRip [720p]-Видеокодек: mpeg-4 avc/h.264
Битрейт видео: ~4440 Кбит/сек
Размер кадра: 1280х720
Аудио:
#1: AC-3, 160 Кбит/сек, 2 канала, 48,0 КГц (Русский)
#2: DTS, 1509 Кбит/сек, 6 каналов, 48,0 КГц (Английский)-

MediaInfo

Общее
Уникальный идентификатор : 239168806491643854134971809260748532511 (0xB3EE3C9308B6814E93DADF2FD371EB1F)
Полное имя : D:\Мои видеозаписи\(На NNM)\Uskyld.2012.BDRip.720p.mkv
Формат : Matroska
Версия формата : Version 4 / Version 2
Размер файла : 4,49 Гбайт
Продолжительность : 1 ч. 45 м.
Общий поток : 6108 Кбит/сек
Название фильма : Release Group [SPAM]
Дата кодирования : UTC 2013-11-24 21:22:01
Программа кодирования : mkvmerge v6.5.0 ('Isn't she lovely') built on Oct 20 2013 12:50:05
Библиотека кодирования : libebml v1.3.0 + libmatroska v1.4.1
Видео
Идентификатор : 1
Формат : AVC
Формат/Информация : Advanced Video Codec
Профиль формата : [url=mailto:[email protected]][email protected][/url]
Параметр CABAC формата : Да
Параметр ReFrames формата : 5 кадров
Идентификатор кодека : V_MPEG4/ISO/AVC
Продолжительность : 1 ч. 45 м.
Битрейт : 4440 Кбит/сек
Ширина : 1280 пикселей
Высота : 720 пикселей
Соотношение сторон : 16:9
Режим частоты кадров : Постоянный
Частота кадров : 24,000 кадра/сек
Цветовое пространство : YUV
Субдискретизация насыщенности : 4:2:0
Битовая глубина : 8 бит
Тип развёртки : Прогрессивная
Бит/(Пиксели*Кадры) : 0.201
Размер потока : 3,17 Гбайт (71%)
Заголовок : Release Group [SPAM]
Библиотека кодирования : x264 core 133 r2334 a3ac64b
Настройки программы : cabac=1 / ref=5 / deblock=1:0:0 / analyse=0x3:0x133 / me=umh / subme=7 / psy=1 / psy_rd=1.00:0.00 / mixed_ref=1 / me_range=16 / chroma_me=1 / trellis=1 / 8x8dct=1 / cqm=0 / deadzone=21,11 / fast_pskip=0 / chroma_qp_offset=-2 / threads=9 / lookahead_threads=1 / sliced_threads=0 / nr=0 / decimate=1 / interlaced=0 / bluray_compat=0 / constrained_intra=0 / bframes=3 / b_pyramid=2 / b_adapt=1 / b_bias=0 / direct=1 / weightb=1 / open_gop=0 / weightp=2 / keyint=250 / keyint_min=23 / scenecut=40 / intra_refresh=0 / rc_lookahead=40 / rc=2pass / mbtree=1 / bitrate=4440 / ratetol=1.0 / qcomp=0.60 / qpmin=0 / qpmax=69 / qpstep=4 / cplxblur=20.0 / qblur=0.5 / ip_ratio=1.40 / aq=1:1.00
Язык : Norwegian
Default : Да
Forced : Нет
Аудио #1
Идентификатор : 2
Формат : AC-3
Формат/Информация : Audio Coding 3
Расширение режима : CM (complete main)
Параметр Endianness формата : Big
Идентификатор кодека : A_AC3
Продолжительность : 1 ч. 45 м.
Вид битрейта : Постоянный
Битрейт : 160 Кбит/сек
Каналы : 2 канала
Расположение каналов : Front: L R
Частота : 48,0 КГц
Битовая глубина : 16 бит
Метод сжатия : С потерями
Размер потока : 120 Мбайт (3%)
Заголовок : den904
Язык : Russian
Default : Да
Forced : Да
Аудио #2
Идентификатор : 3
Формат : DTS
Формат/Информация : Digital Theater Systems
Режим : 16
Параметр Endianness формата : Big
Идентификатор кодека : A_DTS
Продолжительность : 1 ч. 45 м.
Вид битрейта : Постоянный
Битрейт : 1509 Кбит/сек
Каналы : 6 каналов
Расположение каналов : Front: L C R, Side: L R, LFE
Частота : 48,0 КГц
Битовая глубина : 24 бит
Метод сжатия : С потерями
Размер потока : 1,11 Гбайт (25%)
Язык : Norwegian
Default : Нет
Forced : Нет
Текст
Идентификатор : 4
Формат : UTF-8
Идентификатор кодека : S_TEXT/UTF8
Идентификатор кодека/Информация : UTF-8 Plain Text
Язык : English
Default : Нет
Forced : Нет
-Скриншоты:
Время раздачи: 24/7 до 10 скачавших
Яндекс.Метрика
Рейтинг@Mail.ru