[ Сегодня на трекере фрилич! Идет свободное скачивание без начисления Download ]

Одиночка / En solitaire (Кристоф Оффенштейн / Christophe Offenstein) [2013, Франция, приключения, драма, BDRip 720p] MVO + Sub Rus, Eng, Fr + Original Eng

 

Создавать темы 12-Окт-2015 16:36

--Одиночка / En solitaire-- Страна: Франция
Студия: A Contracorriente Films, Angoa-Agicoa, Canal+ [fr]
Жанр: приключения, драма
Год выпуска: 2013
Продолжительность: 01:40:45
Перевод: Профессиональный (многоголосый закадровый)
Cубтитры: Rus, Eng, Fr
Оригинальная аудиодорожка: английский
Режиссер: Кристоф Оффенштейн / Christophe Offenstein
В ролях: Франсуа Клюзе, Сами Сегир, Гийом Кане, Карин Ванасс, Вирджиния Эфира, Жан-Поль Рув
Описание: Янн Кермадек спонтанно отправляется в кругосветное путешествие на парусной регате "Венди Глоб" в одиночку, вместо попавшего в аварию напарника. Его дела идут неплохо - яхтсмен успешно преодолевает трудности одиночного плаванья и имеет все шансы стать победителем гонок. Но неожиданный пассажир, шестнадцатилетний Мано, тайно прокравшийся на лодку в надежде добраться до Франции, ставит под угрозу дальнейшее участие Янна в соревнованиях. Как поступит главный герой в этой непростой ситуации? Об этом, собственно, фильм.

Тип релиза: BDRip 720p
Контейнер: MKV
Видео: MPEG-4 AVC, 9514 Кбит/с, 1280x544, 23,976 fps
Аудио: Rus, AC3, 192 kb/s (2 ch), 48 kHz
Аудио 2: Eng, DTS, 1510 kb/s (6 ch), 48 kHz
Формат субтитров: softsub (SRT)

MediaInfo

Format : Matroska
Format version : Version 4 / Version 2
File size : 8.05 GiB
Duration : 1h 40mn
Overall bit rate : 11.4 Mbps
Movie name : Одиночка. (Tonik)
Encoded date : UTC 2015-10-12 12:56:51
Writing application : mkvmerge v7.1.0 ('Good Love') 64bit built on Jul 27 2014 13:06:55
Writing library : libebml v1.3.0 + libmatroska v1.4.1
_STATISTICS_WRITING_APP : mkvmerge v7.1.0 ('Good Love') 64bit built on Jul 27 2014 13:06:55
_STATISTICS_WRITING_DATE_UTC : 2015-10-12 12:56:51
_STATISTICS_TAGS : BPS DURATION NUMBER_OF_FRAMES NUMBER_OF_BYTES
DURATION : 01:40:45.888000000
NUMBER_OF_FRAMES : 188934
NUMBER_OF_BYTES : 145101312
Video
ID : 1
Format : AVC
Format/Info : Advanced Video Codec
Format profile : [email protected]
Format settings, CABAC : Yes
Format settings, ReFrames : 12 frames
Codec ID : V_MPEG4/ISO/AVC
Duration : 1h 40mn
Bit rate : 9 514 Kbps
Width : 1 280 pixels
Height : 544 pixels
Display aspect ratio : 2.35:1
Frame rate mode : Constant
Frame rate : 23.976 fps
Color space : YUV
Chroma subsampling : 4:2:0
Bit depth : 8 bits
Scan type : Progressive
Bits/(Pixel*Frame) : 0.570
Stream size : 6.70 GiB (83%)
Writing library : x264 core 142 r2409kMod d6b4e63
Encoding settings : cabac=1 / ref=12 / deblock=1:-3:-3 / analyse=0x3:0x133 / me=tesa / subme=10 / psy=1 / fade_compensate=0.00 / psy_rd=1.05:0.00 / mixed_ref=1 / me_range=32 / chroma_me=1 / trellis=2 / 8x8dct=1 / cqm=0 / deadzone=21,11 / fast_pskip=0 / chroma_qp_offset=-2 / threads=12 / lookahead_threads=2 / sliced_threads=0 / nr=0 / decimate=1 / interlaced=0 / bluray_compat=0 / constrained_intra=0 / fgo=0 / bframes=7 / b_pyramid=2 / b_adapt=2 / b_bias=0 / direct=3 / weightb=1 / open_gop=0 / weightp=2 / keyint=241 / keyint_min=23 / scenecut=40 / intra_refresh=0 / rc_lookahead=60 / rc=crf / mbtree=0 / crf=16.6000 / qcomp=0.75 / qpmin=0 / qpmax=69 / qpstep=4 / vbv_maxrate=50000 / vbv_bufsize=62500 / crf_max=0.0 / nal_hrd=none / filler=0 / ip_ratio=1.30 / pb_ratio=1.20 / aq=1:0.70 / zones=138524,144958,q=26
Language : English
Default : Yes
Forced : No
_STATISTICS_WRITING_APP : mkvmerge v7.1.0 ('Good Love') 64bit built on Jul 27 2014 13:06:55
_STATISTICS_WRITING_DATE_UTC : 2015-10-12 12:56:51
_STATISTICS_TAGS : BPS DURATION NUMBER_OF_FRAMES NUMBER_OF_BYTES
DURATION : 01:40:45.999000000
NUMBER_OF_FRAMES : 144959
NUMBER_OF_BYTES : 7359908360
Audio #1
ID : 2
Format : AC-3
Format/Info : Audio Coding 3
Mode extension : CM (complete main)
Format settings, Endianness : Big
Codec ID : A_AC3
Duration : 1h 40mn
Bit rate mode : Constant
Bit rate : 192 Kbps
Channel(s) : 2 channels
Channel positions : Front: L R
Sampling rate : 48.0 KHz
Bit depth : 16 bits
Compression mode : Lossy
Stream size : 138 MiB (2%)
Language : Russian
Default : Yes
Forced : No
Audio #2
ID : 3
Format : DTS
Format/Info : Digital Theater Systems
Mode : 16
Format settings, Endianness : Big
Codec ID : A_DTS
Duration : 1h 40mn
Bit rate mode : Constant
Bit rate : 1 509 Kbps
Channel(s) : 6 channels
Channel positions : Front: L C R, Side: L R, LFE
Sampling rate : 48.0 KHz
Bit depth : 24 bits
Compression mode : Lossy
Stream size : 1.06 GiB (13%)
Language : English
Default : No
Forced : No
Text #1
ID : 4
Format : UTF-8
Codec ID : S_TEXT/UTF8
Codec ID/Info : UTF-8 Plain Text
Title : Sub ancha-a
Language : Russian
Default : No
Forced : No
Text #2
ID : 5
Format : UTF-8
Codec ID : S_TEXT/UTF8
Codec ID/Info : UTF-8 Plain Text
Language : English
Default : No
Forced : No
Text #3
ID : 6
Format : UTF-8
Codec ID : S_TEXT/UTF8
Codec ID/Info : UTF-8 Plain Text
Language : French
Default : No
Forced : No
Menu
00:00:00.000 : :00:00:00.000
00:07:27.864 : :00:07:27.864
00:14:57.730 : :00:14:57.730
00:24:16.246 : :00:24:16.246
00:32:13.807 : :00:32:13.807
00:43:07.126 : :00:43:07.126
00:53:50.269 : :00:53:50.269
00:59:25.103 : :00:59:25.103
01:08:32.817 : :01:08:32.817
01:19:54.456 : :01:19:54.456
01:25:47.893 : :01:25:47.893
01:36:19.273 : :01:36:19.273

Скриншоты

Яндекс.Метрика
Рейтинг@Mail.ru