[ Сегодня на трекере фрилич! Идет свободное скачивание без начисления Download ]

Макс / Max (Боаз Якин) [2015, приключения, семейный, HDRip] [iTunes]

 

Создавать темы 12-Окт-2015 10:05

Макс / Max-Год выпуска: 2015
Страна: США / Metro-Goldwyn-Mayer (MGM), Sunswept Entertainment, Warner Bros
Жанр: приключения, семейный
Продолжительность: 01:50:57
Перевод: Профессиональный (многоголосый) [iTunes]
Субтитры: Отсутствуют-В ролях: Томас Хейден Чёрч, Джош Уиггинс, Люк Клеинтенк, Лорен Грэм, Робби Амелл, Джей Эрнандес, Оуэн Харн, Джозеф Джулиан Сория
Режиссёр: Боаз Якин-Описание: Фильм рассказывает историю о собаке, которая прошла войну в Афганистане, помогая американским солдатам. После трагического происшествия собаку забирает к себе домой семья ответственного за нее солдата....-Качество: HDRip
Формат: AVI
Видео кодек: XviD
Аудио кодек: AC3
Видео: 1492 Кбит/с, 720x304, 23.976 fps
Аудио: AC3 Dolby Digital, 6 ch, ~384.00 kbps, 48 kHz (Русский)-

Медиа инфо

Полное имя : D:\кино\Maks.2015.P.HDRip.1.46GB.avi
Формат : AVI
Формат/Информация : Audio Video Interleave
Размер файла : 1,46 Гбайт
Продолжительность : 1 ч. 50 м.
Общий поток : 1885 Кбит/сек
Программа кодирования : VirtualDubMod 1.5.10.2 (build 2540/release)
Библиотека кодирования : VirtualDubMod build 2540/release
Видео
Идентификатор : 0
Формат : MPEG-4 Visual
Профиль формата : Advanced [email protected]
Параметр BVOP формата : 2
Параметр QPel формата : Нет
Параметр GMC формата : Без точки перехода
Параметр матрицы формата : Default (MPEG)
Идентификатор кодека : XVID
Идентификатор кодека/Подсказка : XviD
Продолжительность : 1 ч. 50 м.
Битрейт : 1492 Кбит/сек
Ширина : 720 пикселей
Высота : 304 пикселя
Соотношение сторон : 2,35:1
Частота кадров : 23,976 кадра/сек
Цветовое пространство : YUV
Субдискретизация насыщенности : 4:2:0
Битовая глубина : 8 бит
Тип развёртки : Прогрессивная
Метод сжатия : С потерями
Бит/(Пиксели*Кадры) : 0.284
Размер потока : 1,16 Гбайт (79%)
Библиотека кодирования : XviD 1.2.1 (UTC 2008-12-04)
Аудио
Идентификатор : 1
Формат : AC-3
Формат/Информация : Audio Coding 3
Расширение режима : CM (complete main)
Параметр Endianness формата : Big
Идентификатор кодека : 2000
Продолжительность : 1 ч. 50 м.
Вид битрейта : Постоянный
Битрейт : 384 Кбит/сек
Каналы : 6 каналов
Расположение каналов : Front: L C R, Side: L R, LFE
Частота : 48,0 КГц
Метод сжатия : С потерями
Размер потока : 305 Мбайт (20%)
Выравнивание : Разделение по промежуткам
Продолжительность промежутка : 42 мс. (1,00 видеокадр)
Время предзагрузки промежутка : 500 мс.

Скриншоты:

Яндекс.Метрика
Рейтинг@Mail.ru