128 ударов сердца в минуту / We Are Your Friends (2015) WEB-DL 720p | iTunes

 

Создавать темы 08-Окт-2015 23:06

128 ударов сердца в минуту / We Are Your FriendsГод выхода: 2015
Жанр: драма, мелодрама, музыка
Режиссер: Макс Джозеф
В ролях:
Зак Эфрон, Уэс Бентли, Эмили Ратаковски, Джонни Уэстон, Шайло Фернандес, Алекс Шеффер, Джон Бернтал, Алисия Коппола, Уайли М. Пикетт, Джон Абрахамс
О фильме:
Лос-Анджелес, Калифорния — это мир бесконечных возможностей днем и нереальных голливудских вечеринок ночью. Оба этих мира стремится покорить молодой DJ по имени Коул, неустанно работающий над своим пробивным треком, который должен взорвать весь мир. Его замечает и берет под крыло опытный продюсер Джеймс, но все становится крайне запутанным, когда Коул влюбляется в молодую подружку Джеймса. Вскоре перед Коулом встает непростой выбор между любовью, верностью, старыми друзьями и будущим, о котором он так мечтает.


Выпущено: Великобритания, Франция, США / PolyGram Filmed Entertainment, Studio Canal, Working Title Films
Продолжительность: 01:32:03
Озвучивание: Дублированное [iTunes]
Файл
Формат: MKV
Качество: WEB-DL 720p
Видео: MPEG-4 AVC, 3964 kb/s, [email protected]
Аудио: AC3, 384 kb/s (6 ch)

MI

Format                         : Matroska
Format version                 : Version 4 / Version 2
File size                      : 2.85 GiB
Duration                       : 1h 32mn
Overall bit rate               : 4 436 Kbps
Encoded date                   : UTC 2015-10-08 09:35:16
Writing application            : mkvmerge v6.9.1 ('Blue Panther') 64bit built on Apr 18 2014 18:23:38
Writing library                : libebml v1.3.0 + libmatroska v1.4.1
Video
ID                             : 1
Format                         : AVC
Format/Info                    : Advanced Video Codec
Format profile                 : [email protected]
Format settings, CABAC         : No
Format settings, ReFrames      : 2 frames
Codec ID                       : V_MPEG4/ISO/AVC
Duration                       : 1h 32mn
Bit rate                       : 3 964 Kbps
Width                          : 960 pixels
Height                         : 720 pixels
Display aspect ratio           : 16:9
Frame rate mode                : Constant
Frame rate                     : 25.000 fps
Color space                    : YUV
Chroma subsampling             : 4:2:0
Bit depth                      : 8 bits
Scan type                      : Progressive
Bits/(Pixel*Frame)             : 0.229
Stream size                    : 2.55 GiB (89%)
Language                       : English
Default                        : Yes
Forced                         : No
Color range                    : Limited
Color primaries                : BT.709
Transfer characteristics       : BT.709
Matrix coefficients            : BT.709
Audio
ID                             : 2
Format                         : AC-3
Format/Info                    : Audio Coding 3
Mode extension                 : CM (complete main)
Format settings, Endianness    : Big
Codec ID                       : A_AC3
Duration                       : 1h 32mn
Bit rate mode                  : Constant
Bit rate                       : 384 Kbps
Channel(s)                     : 6 channels
Channel positions              : Front: L C R, Side: L R, LFE
Sampling rate                  : 48.0 KHz
Bit depth                      : 16 bits
Compression mode               : Lossy
Stream size                    : 253 MiB (9%)
Language                       : Russian
Default                        : Yes
Forced                         : No
Menu
00:00:00.000                   : en:Глава 1
00:05:00.000                   : en:Глава 2
00:10:28.000                   : en:Глава 3
00:15:42.000                   : en:Глава 4
00:21:58.000                   : en:Глава 5
00:28:10.000                   : en:Глава 6
00:33:22.000                   : en:Глава 7
00:38:41.000                   : en:Глава 8
00:43:54.000                   : en:Глава 9
00:49:54.000                   : en:Глава 10
00:55:21.000                   : en:Глава 11
01:01:52.000                   : en:Глава 12
01:07:04.000                   : en:Глава 13
01:13:49.000                   : en:Глава 14
01:19:05.000                   : en:Глава 15
01:25:22.000                   : en:Глава 16

Скриншоты:

Яндекс.Метрика
Рейтинг@Mail.ru