Пиксели / Pixels (2015) WEB-DL 1080p | iTunes

 

Создавать темы 08-Окт-2015 22:49

Пиксели / Pixels Год выхода: 2015
Жанр: фантастика, боевик, комедия
Режиссер: Крис Коламбус
В ролях:
Адам Сэндлер, Кевин Джеймс, Мишель Монахэн, Питер Динклэйдж, Джош Гэд, Брайан Кокс, Мэттью Линтц, Шон Бин, Джейн Краковски, Дэн Эйкройд
О фильме:
Очередное вторжение инопланетян на Землю… Вы скажете: «Что может быть банальнее?!». Да, если бы на этот раз они не предстали в виде героев вселенски популярных компьютерных игр. Сражаться с пришельцами призвана команда бывших геймеров, в числе которых: Президент Соединенных Штатов Америки; карлик-зэк, большой ценитель прекрасного пола; зануда-параноик, свято верящий в теорию вселенского заговора; профессиональный неудачник и циник, в детстве подававший большие надежды. А помогает новоиспеченным героям очаровательная ученая фея.


Выпущено: США / 1492 Pictures, Columbia Pictures, Happy Madison Productions
Продолжительность: 01:45:37
Озвучивание: Дублированное [iTunes]
Файл
Формат: MKV
Качество: WEB-DL 1080p
Видео: 4336 kb/s, 1920x796
Аудио: Russian: AC3, 384 kb/s (6 ch) / Ukrainian: AAC, 160 kb/s (2 ch) / English: AC3, 384 kb/s (6 ch)
Размер: 3.96 GB
Скачать: Сэмпл-

Media Info

Video
ID                          : 1
Format                      : AVC
Format/Info                 : Advanced Video Codec
Format profile              : [email protected]
Format settings, CABAC      : Yes
Format settings, ReFrames   : 5 frames
Codec ID                    : V_MPEG4/ISO/AVC
Duration                    : 1h 45mn
Width                       : 1 920 pixels
Height                      : 796 pixels
Display aspect ratio        : 2.40:1
Frame rate mode             : Constant
Frame rate                  : 23.976 fps
Color space                 : YUV
Chroma subsampling          : 4:2:0
Bit depth                   : 8 bits
Scan type                   : Progressive
Title                       : PIXELS_WEB_DL_1080p-BLUEBIRD
Language                    : English
Default                     : Yes
Forced                      : No
Color primaries             : BT.709
Transfer characteristics    : BT.709
Matrix coefficients         : BT.709
Color range                 : Limited
Audio #1
ID                          : 2
Format                      : AC-3
Format/Info                 : Audio Coding 3
Mode extension              : CM (complete main)
Format settings, Endianness : Big
Codec ID                    : A_AC3
Duration                    : 1h 45mn
Bit rate mode               : Constant
Bit rate                    : 384 Kbps
Channel(s)                  : 6 channels
Channel positions           : Front: L C R, Side: L R, LFE
Sampling rate               : 48.0 KHz
Bit depth                   : 16 bits
Compression mode            : Lossy
Stream size                 : 291 MiB (7%)
Title                       : [DUB] DD 5.1 @ 384 kbps
Language                    : Russian
Default                     : No
Forced                      : No
Audio #2
ID                          : 3
Format                      : AAC
Format/Info                 : Advanced Audio Codec
Format profile              : LC
Codec ID                    : A_AAC
Duration                    : 1h 45mn
Channel(s)                  : 2 channels
Channel positions           : Front: L R
Sampling rate               : 44.1 KHz
Compression mode            : Lossy
Title                       : [DUB] AAC 2.0 @ 160 kbps
Language                    : Ukrainian
Default                     : No
Forced                      : No
Audio #3
ID                          : 4
Format                      : AC-3
Format/Info                 : Audio Coding 3
Mode extension              : CM (complete main)
Format settings, Endianness : Big
Codec ID                    : A_AC3
Duration                    : 1h 45mn
Bit rate mode               : Constant
Bit rate                    : 384 Kbps
Channel(s)                  : 6 channels
Channel positions           : Front: L C R, Side: L R, LFE
Sampling rate               : 48.0 KHz
Bit depth                   : 16 bits
Compression mode            : Lossy
Stream size                 : 291 MiB (7%)
Title                       : [ORIGINAL] DD 5.1 @ 384 kbps
Language                    : English
Default                     : No
Forced                      : No
Text #1
ID                          : 5
Format                      : UTF-8
Codec ID                    : S_TEXT/UTF8
Codec ID/Info               : UTF-8 Plain Text
Title                       : Forced
Language                    : Russian
Default                     : Yes
Forced                      : No
Text #2
ID                          : 6
Format                      : UTF-8
Codec ID                    : S_TEXT/UTF8
Codec ID/Info               : UTF-8 Plain Text
Title                       : Full-length
Language                    : Russian
Default                     : No
Forced                      : No
Text #3
ID                          : 7
Format                      : UTF-8
Codec ID                    : S_TEXT/UTF8
Codec ID/Info               : UTF-8 Plain Text
Title                       : Full-length
Language                    : Ukrainian
Default                     : No
Forced                      : No
Text #4
ID                          : 8
Format                      : UTF-8
Codec ID                    : S_TEXT/UTF8
Codec ID/Info               : UTF-8 Plain Text
Title                       : Forced
Language                    : English
Default                     : No
Forced                      : No
Text #5
ID                          : 9
Format                      : UTF-8
Codec ID                    : S_TEXT/UTF8
Codec ID/Info               : UTF-8 Plain Text
Title                       : Full-length
Language                    : English
Default                     : No
Forced                      : No
Menu
00:00:00.000                : en:1
00:04:54.000                : en:2
00:10:22.000                : en:3
00:14:52.000                : en:4
00:19:51.000                : en:5
00:26:19.000                : en:6
00:32:56.000                : en:7
00:40:34.000                : en:8
00:47:38.000                : en:9
00:52:31.000                : en:10
00:58:53.000                : en:11
01:05:04.000                : en:12
01:09:20.000                : en:13
01:18:09.000                : en:14
01:27:50.000                : en:15
01:33:48.000                : en:16

Скриншоты:

Яндекс.Метрика
Рейтинг@Mail.ru