[ Сегодня на трекере фрилич! Идет свободное скачивание без начисления Download ]

Развод по собственному желанию (2015,комедия, мелодрама) WEB-DLRip

 

Создавать темы 08-Окт-2015 20:24

-Развод по собственному желанию (2015) WEB-DLRip-Страна: Россия
Жанр: комедия, мелодрама
Год выпуска: 2015
Продолжительность: 01:25:17
Перевод: Не требуется
Режиссер: Илья Северов-В ролях: Константин Юшкевич, Наталья Суркова, Вячеслав Коробицин, Юрий Гальцев, Наталья Ткаченко, Любовь Виролайнен, Антон Пулит, Артем Веселов, Екатерина Зорина, Артем Анчуков-Описание: Тренер, велогонщик в прошлом, Сергей и основательница сети книжных магазинов Елена уже двадцать лет вместе. Из неожиданно разгоревшейся супружеской ссоры возникает серьезный скандал, грозящий перерасти в развод.
Сиюминутное решение Сергея - начать все заново. Он уходит из дома и не подозревает, что жизнь может кардинально поменяться всего за несколько часов. Круговерть невероятных приключений, в которые втягивает лучший друг, и безумных ситуаций с близкими проверят на прочность крепость семейных уз Сергея и Елены.--Качество: WEB-DLRip
Контейнер: AVI
Видео: XviD, 704x368 (1.913), 1018 kbps, 25 fps, 0,157 bpp
Аудио: AC3 / 2.0 / 48 kHz / 192 kbps / 16 bit

Скриншоты

MI

General
Complete name : C:UsersАванес МКРТЧЯНDesktopRazvod_2015_WEBDLRip.avi
Format : AVI
Format/Info : Audio Video Interleave
File size : 745 MiB
Duration : 1h 25mn
Overall bit rate : 1 221 Kbps
Writing application : VirtualDubMod 1.5.10.3 | www.virtualdub-fr.org || (build 2550/release)
Writing library : VirtualDubMod build 2550/release
Video
ID : 0
Format : MPEG-4 Visual
Format profile : Advanced [email protected]
Format settings, BVOP : 1
Format settings, QPel : No
Format settings, GMC : No warppoints
Format settings, Matrix : Default (H.263)
Codec ID : XVID
Codec ID/Hint : XviD
Duration : 1h 25mn
Bit rate : 1 019 Kbps
Width : 704 pixels
Height : 368 pixels
Display aspect ratio : 1.913
Frame rate : 25.000 fps
Color space : YUV
Chroma subsampling : 4:2:0
Bit depth : 8 bits
Scan type : Progressive
Compression mode : Lossy
Bits/(Pixel*Frame) : 0.157
Stream size : 622 MiB (83%)
Writing library : XviD 73
Audio
ID : 1
Format : AC-3
Format/Info : Audio Coding 3
Mode extension : CM (complete main)
Codec ID : 2000
Duration : 1h 25mn
Bit rate mode : Constant
Bit rate : 192 Kbps
Channel(s) : 2 channels
Channel positions : Front: L R
Sampling rate : 48.0 KHz
Bit depth : 16 bits
Compression mode : Lossy
Stream size : 117 MiB (16%)
Alignment : Split accross interleaves
Interleave, duration : 40 ms (1.00 video frame)
Interleave, preload duration : 500 ms
Яндекс.Метрика
Рейтинг@Mail.ru