[ Сегодня на трекере фрилич! Идет свободное скачивание без начисления Download ]

Пиксели / Pixels (2015) HDTVRip [Line]

 

Создавать темы 02-Окт-2015 21:59

- Пиксели / Pixels (2015) HDTVRip - Производство: США / Columbia Pictures, 1492 Pictures, Happy Madison Productions
Жанр: Фантастика, Боевик, Комедия
Режиссер: Крис Коламбус
Продюсер: Майкл Барнатан, Крис Коламбус, Аллен Коверт
Актеры: Адам Сэндлер, Кевин Джеймс, Мишель Монахэн, Питер Динклэйдж, Джош Гад, Брайан Кокс, Мэттью Линтц, Шон Бин, Джейн Краковски, Дэн Эйкройд
Описание:
Очередное вторжение инопланетян на Землю… Вы скажете: «Что может быть банальнее?!». Да, если бы на этот раз они не предстали в виде героев вселенски популярных компьютерных игр. Сражаться с пришельцами призвана команда бывших геймеров, в числе которых: Президент Соединенных Штатов Америки; карлик-зэк, большой ценитель прекрасного пола; зануда-параноик, свято верящий в теорию вселенского заговора; профессиональный неудачник и циник, в детстве подававший большие надежды. А помогает новоиспеченным героям очаровательная ученая фея.

Дата мировой премьеры: 16 июля 2015
Дата премьеры в России: 23 июля 2015, «WDSSPR» 3D
Дата выхода DVD/Blu-ray релиза: 22 октября 2015, «CP Дистрибуция»
Продолжительность: 01:45:37
Качество видео: HDTVRip
Перевод: Дублированный (чистый звук)
Вид субтитров: Отсутствуют
Примечание: Электричка
Видео: Xvid, 720x304, ~1576 kb/s
Аудио: AC3, 2 ch, 384 kb/s
Семпл: Скачать

Mediainfo:

Общее
Полное имя                               : Pixeli.2015.D.HDTVRip.nnm-club.avi
Формат                                   : AVI
Формат/Информация                        : Audio Video Interleave
Размер файла                             : 1,45 Гбайт
Продолжительность                        : 1 ч. 45 м.
Общий поток                              : 1971 Кбит/сек
Название фильма                          : 5iXe1i.2015.D.HDTVRip.ELEKTRI4KA.uniongang.tv
Программа кодирования                    : VirtualDubMod 1.5.10.3 | | (build 2550/release)
Правообладатель                          : UNIONGANG&RUSTORRENTS
Видео
Идентификатор                            : 0
Формат                                   : MPEG-4 Visual
Профиль формата                          : Advanced [email protected]
Параметр BVOP формата                    : 2
Параметр QPel формата                    : Нет
Параметр GMC формата                     : Без точки перехода
Параметр матрицы формата                 : Default (MPEG)
Идентификатор кодека                     : XVID
Идентификатор кодека/Подсказка           : XviD
Продолжительность                        : 1 ч. 45 м.
Битрейт                                  : 1576 Кбит/сек
Ширина                                   : 720 пикселей
Высота                                   : 304 пикселя
Соотношение сторон                       : 2,35:1
Частота кадров                           : 29,970 кадров/сек
Цветовое пространство                    : YUV
Субдискретизация насыщенности            : 4:2:0
Битовая глубина                          : 8 бит
Тип развёртки                            : Прогрессивная
Метод сжатия                             : С потерями
Бит/(Пиксели*Кадры)                      : 0.240
Размер потока                            : 1,16 Гбайт (80%)
Библиотека кодирования                   : XviD 1.2.1 (UTC 2008-12-04)
Аудио
Идентификатор                            : 1
Формат                                   : AC-3
Формат/Информация                        : Audio Coding 3
Расширение режима                        : CM (complete main)
Параметр Endianness формата              : Big
Идентификатор кодека                     : 2000
Продолжительность                        : 1 ч. 45 м.
Вид битрейта                             : Постоянный
Битрейт                                  : 384 Кбит/сек
Каналы                                   : 2 канала
Расположение каналов                     : Front: L R
Частота                                  : 48,0 КГц
Метод сжатия                             : С потерями
Размер потока                            : 290 Мбайт (19%)
Выравнивание                             : Разделение по промежуткам
Продолжительность промежутка             : 33  мс. (1,00 видеокадр)
Время предзагрузки промежутка            : 500  мс.
Скриншоты:
-Время раздачи: 24/7 (до 10 скачавших)
Яндекс.Метрика
Рейтинг@Mail.ru