[ Сегодня на трекере фрилич! Идет свободное скачивание без начисления Download ]

Da Vinci Learning: Эко-2. Дизайн / E2.Design [сезоны 1-3 серии 1-18 из 18]

 

Создавать темы 02-Окт-2015 21:27

-Da Vinci Learning: Эко-2. Дизайн / E2.Design [сезоны 1-3 серии 1-18 из 18]- Год выпуска: 2006
Страна: США, Content Real LLC
Жанр: Документальный, архитектура, строительство
Продолжительность: 18x~00:25:35
Перевод: Профессиональный (одноголосый)
Режиссер: Tad Fettig-Описание:-Зачем нам прогресс ради самого прогресса? Почему жажда лучшей жизни может поставить под угрозу наше будущее? Но эта угроза указывает нам путь для улучшения и обновления. "Экономично и экологично" - новый взгляд на дизайн в строительстве.-Качество: SATRip
Контейнер: AVI
Видео кодек: XviD
Аудио кодек: AC3
Видео: 704x400 25fps ~1950 Kbps
Аудио: AC3 2ch, 48kHz, 192 kbps-----Список серий:-

Сезон 1:

01. Зеленое Яблоко / The Green Apple
Нью-Йорк, Город большого яблока, оспаривает миф, что мегаполис - это только каменные джунгли, а небоскреб - сооружение, противное природе.
02. Дом для всех / Green for All
Архитектор Серджио Паллерони строит жилье в регионах гуманитарного бедствия.
03. Зеленая машина / The Green Machine
Мэр Чикаго Ричард Дейли расскажет нам, что он делает, чтобы его город стал "самым зеленым городом Америки".
04. От серого к зеленому / Gray to Green
Благодаря идее Пола Педини построить себе дом из строительного мусора появилась задумка необычного офисного центра.
05. Китай: от красного к зеленому? / China: From Red to Green?
Уильям Макдонах собирается сделать Китай экологически чистой страной с помощью выгодной и безопасной "умной" архитектуры.
06. Зеленее, еще зеленее! / Deeper Shades of Green
Гениальные архитекторы Еанг, Вернер Собек и Уильям Макдонах меняют облик общества и принципы экологически безопасного строительства.
-

Сезон 2:

01. Драконовая школа Белого Лотоса в Ладакхе / The Druk White Lotus School-Ladakh
Мы заглянем в школу Белого Лотоса в области Ладакх, где детей учат жить в современном мире, не нарушая традиций буддизма.
02. Озеленяем правительство / Greening the Federal Government
Тому Мейну поручили спроектировать здание правительства Сан-Франциско, которое должно стать образцом госучреждения будущего.
03. Богота: строим "зеленый" город / Bogota: Building a Sustainable City
Энрике Пеньялоса превратил Боготу, один из самых бестолковых городов мира, в образец городского планирования и заботы о населении.
04. Экономичное зелёное жильё / Affordable Green Housing
В этом эпизоде Джонатан Роуз объезжает районы Нью-Йорка, налаживая для их жителей доступ к экологически безопасным технологиям.
05. Адаптация: опыт Голландии / Adaptive Reuse in the Netherlands
Голландцы нашли новое применение заброшенным амстердамским докам - это удачная альтернатива грязи и запустению.
06. Архитектура 2030 / Architecture 2030
Может ли смена курса уберечь нас от климатического ? Эдвард Мазрия хочет отказаться от небезопасного строительства к 2030 году.
-

Сезон 3:

01. Сады Каира / A Garden in Cairo
До 2005 года на одного каирца приходился квадратный фут зелени. Чтобы дать городу воздух, свалку превратили в "зеленые легкие".
02. Деревенское строительство / The Village Architect
Брайан Маккей-Лион освоил архитектурный стиль корабельных доков Новой Шотландии - возможно, самых экологически безопасных зданий в мире.
03. Возрождение Мельбурна / Melbourne Reborn
В середине 70-х Мельбурн считался умирающим городом. Роб Адамс покажет нам, как Мельбурн выжил и как стал "зеленым".
04. Наука и искусство Ренцо Пиано / The Art and Science of Renzo Piano
Черпая вдохновение в природе, Ренцо Пиано создал в Сан-Франциско дом, в котором сочетаются игра пустого пространства и живая крыша.
05. Новый Орлеан: кромка воды / New Orleans: The Water Line
После урагана "Катрина" жители Нового Орлеана решили восстановить свой город и сделать его "зеленым", несмотря на бездействие властей.
06. Излишки / Super Use
В Роттердаме используют новый подход к дизайну в архитектуре - это дает необычную эстетику и высокую функциональность.
-

MediaInfo

Format : AVI
Format/Info : Audio Video Interleave
File size : 392 MiB
Duration : 25mn 35s
Overall bit rate : 2 142 Kbps
Writing application : TMPGEnc Video Mastering Works 5 Version. 5.0.6.38
Writing library : TMPGEnc Video Mastering Works 5 Version. 5.0.6.38
Video
ID : 0
Format : MPEG-4 Visual
Format profile : Advanced [email protected]
Format settings, BVOP : 2
Format settings, QPel : No
Format settings, GMC : No warppoints
Format settings, Matrix : Default (H.263)
Muxing mode : Packed bitstream
Codec ID : XVID
Codec ID/Hint : XviD
Duration : 25mn 35s
Bit rate : 1 942 Kbps
Width : 704 pixels
Height : 400 pixels
Display aspect ratio : 16:9
Frame rate : 25.000 fps
Color space : YUV
Chroma subsampling : 4:2:0
Bit depth : 8 bits
Scan type : Progressive
Compression mode : Lossy
Bits/(Pixel*Frame) : 0.276
Stream size : 355 MiB (91%)
Writing library : XviD 73
Audio
ID : 1
Format : AC-3
Format/Info : Audio Coding 3
Mode extension : CM (complete main)
Format settings, Endianness : Big
Codec ID : 2000
Duration : 25mn 35s
Bit rate mode : Constant
Bit rate : 192 Kbps
Channel(s) : 2 channels
Channel positions : Front: L R
Sampling rate : 48.0 KHz
Bit depth : 16 bits
Compression mode : Lossy
Stream size : 35.1 MiB (9%)
Alignment : Aligned on interleaves
Interleave, duration : 240 ms (6.00 video frames)
Interleave, preload duration : 224 ms
-Скриншоты--Благодарность за предоставленный рип: -Время раздачи: 24/7 (круглосуточно)-
Яндекс.Метрика
Рейтинг@Mail.ru