Майор полиции [16 серий из 16] (Артем Антонов) [2013, Детектив, SATRip]

 

Создавать темы 01-Окт-2015 09:33

Майор полиции (16 серий из 16)--- Русское название: Майор полиции
Выпущено: Россия, Всемирные Русские Студии
Год выпуска: 2013
Жанр: Детектив
Перевод: Оригинал (Русский)
Субтитры: Отсутствуют

SAMPLE
Дата российской премьеры: 26 ноября 2013
Режиссер: Артем Антонов
Актеры: Андрей Ильин, Анна Банщикова, Дмитрий Блохин, Ольга Калмыкова, Елизавета Кутузова, Юрис Лауциньш, Инна Степанова, Валерий Дьяченко, Татьяна Иванова, Елизавета Белоусова, Александр Стекольников, Надежда Некрасова, Яков Петров, Кирилл Жандаров, Олег Жданов, Аркадий Коваль, Дмитрий Поднозов, Лариса Саванкова, Сергей Цепов, Александр Ильин, Александр Ильин (младший), Владимир Богданов, Леонид Тимцуник, Роберт Вааб, Светлана Щедрина, Анна Пескова, Иван Дубровский, Вера Тран, Никита Морозов, Анна Геллер, Наталья Высочанская, Дмитрий Кочкин, Василий Зинькевич, Вячеслав Карпов, Роман Куропов
Описание фильма:
Честный и принципиальный майор милиции Андрей Камышин из провинциального городка Тишинск кому-то очень сильно мешал. Ему «пришили» дело, посадили на три года, а потом, для верности, упрятали в психиатрическую больницу. Спустя время приговор был пересмотрен и отменен, а Андрей Камышин реабилитирован. За годы принудительной изоляции майор практически утратил связь с семьей. Ему предстоит начать жизнь сначала, но легко ли это, когда тебе сорок пять? После долгих сомнений Камышин возвращается на службу в полицию и соглашается стать заместителем начальника УВД. Он собирает команду и ставит перед собой чёткую цель - вытащить на свет корни криминала, опутавшего город.

Продолжительность: 16 х ~ 00:43:47 серия
Качество видео: SATRip
Видеокодек: Xvid
Битрейт видео: ~1439 Kbit/s
Размер кадра: 704 х 368
Аудиокодек: MP3, 2.0
Битрейт аудио: 192 Kbit/s

MediaInfo

Общее
Полное имя : D:\Торренты\ФИЛЬМЫ торента\Майор полиции.2013.SATRip\Майор полиции.01.avi
Формат : AVI
Формат/Информация : Audio Video Interleave
Размер файла : 510 Мбайт
Продолжительность : 43 м.
Общий поток : 1641 Кбит/сек
Программа кодирования : VirtualDubModRus 1.5.10.2 (build 2542/release)
Библиотека кодирования : VirtualDubMod build 2542/release
Видео
Идентификатор : 0
Формат : MPEG-4 Visual
Профиль формата : Advanced [email protected]
Параметр BVOP формата : 1
Параметр QPel формата : Нет
Параметр GMC формата : Без точки перехода
Параметр матрицы формата : Default (H.263)
Идентификатор кодека : XVID
Идентификатор кодека/Подсказка : XviD
Продолжительность : 43 м.
Битрейт : 1439 Кбит/сек
Ширина : 704 пикс.
Высота : 368 пикс.
Соотношение сторон : 1,913
Частота кадров : 25,000 кадр/сек
Цветовое пространство : YUV
Подвыборка цветности : 4:2:0
Битовая глубина : 8 бит
Тип развёртки : Прогрессивная
Метод сжатия : С потерями
Бит/(Пиксели*Кадры) : 0.222
Размер потока : 447 Мбайт (88%)
Библиотека кодирования : XviD 1.2.1 (UTC 2008-12-04)
Аудио
Идентификатор : 1
Формат : MPEG Audio
Версия формата : Version 1
Профиль формата : Layer 3
Режим : Joint stereo
Расширение режима : MS Stereo
Идентификатор кодека : 55
Идентификатор кодека/Подсказка : MP3
Продолжительность : 43 м.
Вид битрейта : Постоянный
Битрейт : 192 Кбит/сек
Каналы : 2 канала
Частота : 48,0 КГц
Метод сжатия : С потерями
Размер потока : 59,7 Мбайт (12%)
Выравнивание : Соединение по промежуткам
Продолжительность промежутка : 40 мс. (1,00 видеокадр)
Время предзагрузки промежутка : 504 ms
Библиотека кодирования : LAME3.99r
Скриншоты:
Яндекс.Метрика
Рейтинг@Mail.ru