Мир Юрского периода / Jurassic World (2015) BDRip 720p | Лицензия

 

Создавать темы 29-Сен-2015 21:23

Мир Юрского периода / Jurassic WorldГод выхода: 2015
Жанр: фантастика, приключения, боевик
Режиссер: Колин Треворроу
В ролях: Крис Пратт , Брайс Даллас Ховард , Ник Дж. Робинсон , Тай Симпкинс , Винсент Д’Онофрио , Ирфан Кхан , Омар Си , Б.Д. Вонг , Джейк Джонсон , Джуди Грир , Кэти МакГрат , Лорен Лапкус
О фильме: Действия фильма происходят спустя двадцать два года после событий Парка юрского периода. На острове Нублар функционирует тематический парк, некогда задуманный Джоном Хэммондом. Именно в это место отправляются два брата, Зак и Грэй, которые решили провести выходные в мире динозавров. Вместе с многочисленными туристами они посещают увлекательные экскурсии и представления, непосредственное участие в которых принимают эти гигантские создания. Однако никто из людей не знает, что сотрудники парка создали новую особь, которая выбралась на свободу и начала свою охоту. Но самое страшное то, что остановить этого динозавра будет очень непросто, поскольку он намного умнее своих сородичей...
скачать
Релиз от: FAGOT100 (NNM-CLUB)
Выпущено: США, Китай
Продолжительность: 02:04:21
Перевод: Дублированный (лицензия)
Файл
Кодек: x264
Качество: BDRip 720p (источник: Blu-ray Disc)
Видео: 1280x640 (2,00:1), 23.976 fps, 4136 kbps
Аудио #1: AC-3, 6 ch, 448 kbps (Rus)
Аудио #2: AC-3, 6 ch, 444 kbps (Eng)
Субтитры: Русские (форс,полные), Английские

MediaInfo:

Формат                                   : Matroska
Версия формата                           : Version 2
Размер файла                             : 4,37 Гбайт
Продолжительность                        : 2 ч. 4 м.
Общий поток                              : 5030 Кбит/сек
Дата кодирования                         : UTC 2015-09-28 20:05:05
Программа кодирования                    : mkvmerge v5.3.0 ('I could have danced') built on Feb  9 2012 10:38:07
Библиотека кодирования                   : libebml v1.2.3 + libmatroska v1.3.0
Attachment                               : Yes
Видео
Идентификатор                            : 1
Формат                                   : AVC
Формат/Информация                        : Advanced Video Codec
Профиль формата                          : [email protected]
Параметр CABAC формата                   : Да
Параметр ReFrames формата                : 10 кадров
Идентификатор кодека                     : V_MPEG4/ISO/AVC
Продолжительность                        : 2 ч. 4 м.
Битрейт                                  : 4136 Кбит/сек
Ширина                                   : 1280 пикселей
Высота                                   : 640 пикселей
Соотношение сторон                       : 2,000
Режим частоты кадров                     : Постоянный
Частота кадров                           : 23,976 кадра/сек
Цветовое пространство                    : YUV
Субдискретизация насыщенности            : 4:2:0
Битовая глубина                          : 8 бит
Тип развёртки                            : Прогрессивная
Бит/(Пиксели*Кадры)                      : 0.211
Размер потока                            : 3,50 Гбайт (80%)
Библиотека кодирования                   : x264 core 146 r2538 121396c
Настройки программы                      : cabac=1 / ref=10 / deblock=1:-3:-3 / analyse=0x3:0x133 / me=umh / subme=11 / psy=1 / psy_rd=1.00:0.00 / mixed_ref=1 / me_range=32 / chroma_me=1 / trellis=2 / 8x8dct=1 / cqm=0 / deadzone=21,11 / fast_pskip=0 / chroma_qp_offset=-2 / threads=12 / lookahead_threads=2 / sliced_threads=0 / nr=0 / decimate=0 / interlaced=0 / bluray_compat=0 / constrained_intra=0 / bframes=8 / b_pyramid=2 / b_adapt=2 / b_bias=0 / direct=3 / weightb=1 / open_gop=0 / weightp=2 / keyint=240 / keyint_min=23 / scenecut=40 / intra_refresh=0 / rc=2pass / mbtree=0 / bitrate=4136 / ratetol=1.0 / qcomp=0.60 / qpmin=0 / qpmax=69 / qpstep=4 / cplxblur=20.0 / qblur=0.5 / ip_ratio=1.40 / pb_ratio=1.30 / aq=1:0.70
Язык                                     : English
Default                                  : Да
Forced                                   : Нет
Аудио #1
Идентификатор                            : 2
Формат                                   : AC-3
Формат/Информация                        : Audio Coding 3
Расширение режима                        : CM (complete main)
Параметр Endianness формата              : Big
Идентификатор кодека                     : A_AC3
Продолжительность                        : 2 ч. 4 м.
Вид битрейта                             : Постоянный
Битрейт                                  : 448 Кбит/сек
Каналы                                   : 6 каналов
Расположение каналов                     : Front: L C R, Side: L R, LFE
Частота                                  : 48,0 КГц
Битовая глубина                          : 16 бит
Метод сжатия                             : С потерями
Размер потока                            : 398 Мбайт (9%)
Заголовок                                : Дублированный (Лицензия)
Язык                                     : Russian
Default                                  : Да
Forced                                   : Нет
Аудио #2
Идентификатор                            : 3
Формат                                   : AC-3
Формат/Информация                        : Audio Coding 3
Расширение режима                        : CM (complete main)
Параметр Endianness формата              : Big
Идентификатор кодека                     : A_AC3
Продолжительность                        : 2 ч. 4 м.
Вид битрейта                             : Постоянный
Битрейт                                  : 448 Кбит/сек
Каналы                                   : 6 каналов
Расположение каналов                     : Front: L C R, Side: L R, LFE
Частота                                  : 48,0 КГц
Битовая глубина                          : 16 бит
Метод сжатия                             : С потерями
Размер потока                            : 398 Мбайт (9%)
Заголовок                                : оригинал
Язык                                     : English
Default                                  : Нет
Forced                                   : Нет
Текст #1
Идентификатор                            : 4
Формат                                   : UTF-8
Идентификатор кодека                     : S_TEXT/UTF8
Идентификатор кодека/Информация          : UTF-8 Plain Text
Заголовок                                : форс.
Язык                                     : Russian
Default                                  : Нет
Forced                                   : Нет
Текст #2
Идентификатор                            : 5
Формат                                   : UTF-8
Идентификатор кодека                     : S_TEXT/UTF8
Идентификатор кодека/Информация          : UTF-8 Plain Text
Язык                                     : Russian
Default                                  : Нет
Forced                                   : Нет
Текст #3
Идентификатор                            : 6
Формат                                   : UTF-8
Идентификатор кодека                     : S_TEXT/UTF8
Идентификатор кодека/Информация          : UTF-8 Plain Text
Язык                                     : English
Default                                  : Нет
Forced                                   : Нет

lod x264

x264 [info]: frame I:1540  Avg QP:19.71  size:111094
x264 [info]: frame P:47565 Avg QP:20.91  size: 41248
x264 [info]: frame B:129782 Avg QP:23.83  size: 12808

Скриншоты:

Яндекс.Метрика
Рейтинг@Mail.ru