[ Сегодня на трекере фрилич! Идет свободное скачивание без начисления Download ]

History: Потерянная пирамида / The Lost Pyramid (Dan Oliver, Nat Sharman) [2008 г., Документальный, научно-познавательный, история, HDTVRip 720p]

 

Создавать темы 29-Сен-2015 20:28

-History: Потерянная пирамида / The Lost Pyramid- Год выпуска: 2008
Страна: Великобритания, Atlantic Productions
Жанр: Документальный, научно-познавательный, история
Продолжительность: 01:27:54
Перевод: Профессиональный (двухголосый)
Режиссер: Dan Oliver, Nat Sharman
В ролях: Stephen Rashbrook, Peter Brand, Vassil Dobrev, Peter Brand, Aidan Dodson, Tessa Dunlop, Fekri Hassan, Zahi Hawass, Salima Ikram, Neal Spencer, Denys Stocks, Roger Tilling, Michel Valloggia-Описание:-Потерянная пирамида - великое мировое открытие! Где-то далеко в Египте, в районе плато Гиза, команда отчаянных археологов и не подозревала, что находится на пороге великого открытия. Не успев начать раскопки, ковш экскаватора столкнулся с твердым, непреодолимым препятствием. Каким же невероятным было удивление археологов, когда, они поняли что обнаружили не просто гигантскую пирамиду, а одну из четырех пирамид Гизы, легенды о которой слагались в течение пяти тысяч лет, но никаких доказательств о ее реальном существовании не было. Никто и никогда не видел в глаза это уникальное сооружение. Лишь спустя тысячи лет эта великая историческая находка была обнаружена.-Доп. информация: За исходник спасибо HDclub
за сведение русской дорожки благодарность nyctalus-Качество: HDTVRip 720p
Контейнер: MKV
Видео кодек: H.264
Аудио кодек: AC3
Видео: 1280x720 59.94fps 5000 Kbps
Аудио: AC3 2ch, 48kHz, 192 kbps-

MediaInfo

Format : Matroska
Format version : Version 4 / Version 2
File size : 3.17 GiB
Duration : 1h 27mn
Overall bit rate mode : Constant
Overall bit rate : 5 156 Kbps
Encoded date : UTC 2015-09-17 12:56:46
Writing application : mkvmerge v8.3.0 ('Over the Horizon') 64bit
Writing library : libebml v1.3.1 + libmatroska v1.4.2
DURATION : 01:27:54.385000000
NUMBER_OF_FRAMES : 316147
NUMBER_OF_BYTES : 3270226411
_STATISTICS_WRITING_APP : mkvmerge v8.3.0 ('Over the Horizon') 64bit
_STATISTICS_WRITING_DATE_UTC : 2015-09-17 12:56:46
_STATISTICS_TAGS : BPS DURATION NUMBER_OF_FRAMES NUMBER_OF_BYTES
Video
ID : 1
Format : AVC
Format/Info : Advanced Video Codec
Format profile : [email protected]
Format settings, CABAC : Yes
Format settings, ReFrames : 3 frames
Codec ID : V_MPEG4/ISO/AVC
Duration : 1h 27mn
Bit rate mode : Constant
Bit rate : 5 000 Kbps / 5 000 Kbps
Width : 1 280 pixels
Height : 720 pixels
Display aspect ratio : 16:9
Frame rate mode : Constant
Frame rate : 60.000 fps
Original frame rate : 59.940 fps
Standard : NTSC
Color space : YUV
Chroma subsampling : 4:2:0
Bit depth : 8 bits
Scan type : Progressive
Bits/(Pixel*Frame) : 0.090
Stream size : 2.99 GiB (94%)
Writing library : x264 core 114
Encoding settings : cabac=1 / ref=3 / deblock=1:0:0 / analyse=0x3:0x113 / me=hex / subme=7 / psy=1 / psy_rd=1.00:0.00 / mixed_ref=1 / me_range=16 / chroma_me=1 / trellis=1 / 8x8dct=1 / cqm=2 / deadzone=21,11 / fast_pskip=1 / chroma_qp_offset=-2 / threads=6 / sliced_threads=0 / slices=1 / nr=0 / decimate=1 / interlaced=0 / constrained_intra=0 / bframes=3 / b_pyramid=0 / b_adapt=1 / b_bias=0 / direct=1 / weightb=1 / open_gop=0 / weightp=2 / keyint=250 / keyint_min=25 / scenecut=40 / intra_refresh=0 / rc_lookahead=40 / rc=cbr / mbtree=1 / bitrate=5000 / ratetol=1.0 / qcomp=0.60 / qpmin=3 / qpmax=69 / qpstep=4 / vbv_maxrate=5000 / vbv_bufsize=4997 / nal_hrd=cbr / ip_ratio=1.40 / aq=1:1.00
Default : Yes
Forced : No
Color primaries : BT.709
Transfer characteristics : BT.709
Matrix coefficients : BT.709
Color range : Limited
Audio
ID : 2
Format : AC-3
Format/Info : Audio Coding 3
Mode extension : CM (complete main)
Format settings, Endianness : Big
Codec ID : A_AC3
Duration : 1h 27mn
Bit rate mode : Constant
Bit rate : 192 Kbps
Channel(s) : 2 channels
Channel positions : Front: L R
Sampling rate : 48.0 KHz
Bit depth : 16 bits
Compression mode : Lossy
Stream size : 121 MiB (4%)
Default : Yes
Forced : No
-Скриншоты--Благодарность за предоставленный рип: -Время раздачи: 24/7 (круглосуточно)-
Яндекс.Метрика
Рейтинг@Mail.ru