Victoria’s Secret Fashion show 2013-2014 [2013 г., Музыкальное fashion-шоу, HDTVRip-AVC] Original (Eng) [internal release]

 

Создавать темы 18-Дек-2013 15:40

-Victoria’s Secret Fashion show 2013-2014- -Производство: США
Жанр: Музыкальное fashion-шоу
Год выпуска: 2013 г.
Продолжительность: 00:47:06
Перевод: Не требуется
Оригинальный аудиопоток: английский-В ролях: Адриана Лима, Алессандра Амбросио, Даутцен Крус, Бехати Принслу, Кэндис Свейнпол, Лили Олдридж и Линдсей Эллингсон, Карли Клосс-Описание: Одно из самых ожидаемых модных шоу прошло в начале ноября в Нью-Йорке. 10 декабря оно было показано на американском телевизионном канале CBS. Модное шоу Victoria’s Secret всегда жду с нетерпением, ведь это не только показ новой коллекции нижнего белья, но также зрелищное, незабываемое представление, в котором принимают участие все самые востребование мировые модели, популярные музыкальные группы и исполнители.
В шоу 2013-2014 приняло участие 40 моделей – Ангелов Victoria’s Secret, чтобы продемонстрировать на подиуме 67 нарядов и 27 пар крыльев. Каждый год одна из Ангелов Victoria’s Secret надевает украшенный драгоценными камнями бюстгальтер Fantasy Bra. В 2013 году правом выйти на подиум в The Royal Fantasy Bra удостоилась Candice Swanepoel. Стоимость этого уникального бюстгалтера равна 10 миллионам долларов, а изготовил его Mouawad.
Victoria’s Secret Fashion show 2013-2014 включало в себя 6 тем (British Invasion, Birds of Paradise, Shipwrecked, Pink Network, Parisian Nights, Snow Angels), каждая из которых сопровождалась выступлением артистов, яркими декорациями, световым шоу.-Сэмпл
Качество видео: HDTVRip-AVC
Контейнер: MKV
Видео кодек: H.264
Аудио кодек: AC3
Видео: MPEG4 Video (H264) 1024x576 23.976fps 1841 Kbps
Аудио: Dolby AC3 48000Hz 6ch 384 Kbps
Cубтитры: отсутствуют

Media Info

General
Unique ID : 240372130776837293170650106062590281169 (0xB4D5FD0ACAD4BF888279D2D5198D85D1)
Complete name : F:\Victorias.Secret.Fashion.Show.2013-2014.H.264.HDTVRip-AVC.mkv
Format : Matroska
Format version : Version 4 / Version 2
File size : 750 MiB
Duration : 47mn 5s
Overall bit rate : 2 227 Kbps
Movie name : pirat.ca
Encoded date : UTC 2013-12-18 08:09:37
Writing application : mkvmerge v6.3.0 ('You can't stop me!') built on Jun 28 2013 20:09:41
Writing library : libebml v1.3.0 + libmatroska v1.4.0
Video
ID : 1
Format : AVC
Format/Info : Advanced Video Codec
Format profile : [email protected]
Format settings, CABAC : Yes
Format settings, ReFrames : 7 frames
Codec ID : V_MPEG4/ISO/AVC
Duration : 47mn 5s
Bit rate : 1 841 Kbps
Width : 1 024 pixels
Height : 576 pixels
Display aspect ratio : 16:9
Frame rate mode : Constant
Frame rate : 23.976 fps
Color space : YUV
Chroma subsampling : 4:2:0
Bit depth : 8 bits
Scan type : Progressive
Bits/(Pixel*Frame) : 0.130
Stream size : 606 MiB (81%)
Writing library : x264 core 130 r2273 b3065e6
Encoding settings : cabac=1 / ref=7 / deblock=1:-1:-1 / analyse=0x3:0x133 / me=umh / subme=10 / psy=1 / psy_rd=1.00:0.15 / mixed_ref=0 / me_range=24 / chroma_me=1 / trellis=2 / 8x8dct=1 / cqm=0 / deadzone=21,11 / fast_pskip=0 / chroma_qp_offset=-3 / threads=3 / lookahead_threads=1 / sliced_threads=0 / nr=0 / decimate=1 / interlaced=0 / bluray_compat=0 / constrained_intra=0 / bframes=6 / b_pyramid=2 / b_adapt=2 / b_bias=0 / direct=3 / weightb=1 / open_gop=0 / weightp=2 / keyint=250 / keyint_min=23 / scenecut=40 / intra_refresh=0 / rc_lookahead=50 / rc=2pass / mbtree=1 / bitrate=1841 / ratetol=1.0 / qcomp=0.60 / qpmin=0 / qpmax=69 / qpstep=4 / cplxblur=20.0 / qblur=0.5 / ip_ratio=1.40 / aq=1:1.00
Default : Yes
Forced : No
Audio
ID : 2
Format : AC-3
Format/Info : Audio Coding 3
Mode extension : CM (complete main)
Format settings, Endianness : Big
Codec ID : A_AC3
Duration : 47mn 5s
Bit rate mode : Constant
Bit rate : 384 Kbps
Channel(s) : 6 channels
Channel positions : Front: L C R, Side: L R, LFE
Sampling rate : 48.0 KHz
Bit depth : 16 bits
Compression mode : Lossy
Stream size : 129 MiB (17%)
Default : Yes
Forced : No
--
Яндекс.Метрика
Рейтинг@Mail.ru