Москва никогда не спит (2015) WEBRip

 

Создавать темы 24-Сен-2015 15:35

- Москва никогда не спит (2015) WEBRip - Производство: Россия, Ирландия
Жанр: Драма, Комедия, Триллер
Режиссер: Джонни О’Райлли
Актеры: Евгения Брик, Михаил Ефремов, Алексей Серебряков, Виктор Вержбицкий, Алёна Бабенко, Юрий Стоянов, Любовь Аксенова, Олег Долин, Яна Попова, Соня Реснянская
Описание:
В день, когда Москва празднует очередной день рождения, каждый из пяти героев должен будет сделать свой жизненный выбор. Их судьбы пересекутся и изменятся навсегда.
Предприниматель должен отстоять свой бизнес, которому угрожают госчиновники; начинающая певица разрывается между любовью и деньгами; знаменитый актер, которого похищают среди белого дня, наконец-то сможет побыть собой и сказать правду; молодой человек ищет возможность соединить долг и собственные желания; а ненавидящим друг друга сводным сестрам за одну опасную ночь удастся найти взаимопонимание.
Связанные скрытыми узами, герои представят яркий портрет мегаполиса в День города. Под взрывы салюта раскроется безудержная энергия крупнейшего города Европы.

Возраст: 6+
Дата премьеры в России: 3 сентября 2015, «Экспонента»
Продолжительность: 01:39:49
Качество видео: WEBRip
Перевод: Не требуется (русский)
Вид субтитров: Отсутствуют
Видео: XviD, 720x304, 1899 kb/s
Аудио: AC3, 2 ch, 192 kb/s
Семпл: Скачать

MI

Общее
Полное имя : D:\Релизы\M0skva.n1kogda.ne.spit.2015.O.WEBRip.1.46GB.avi
Формат : AVI
Формат/Информация : Audio Video Interleave
Размер файла : 1,45 Гбайт
Продолжительность : 1 ч. 39 м.
Общий поток : 2084 Кбит/сек
Программа кодирования : VirtualDubMod 1.5.10.2 (build 2540/release)
Библиотека кодирования : VirtualDubMod build 2540/release
Видео
Идентификатор : 0
Формат : MPEG-4 Visual
Профиль формата : Advanced [email protected]
Параметр BVOP формата : 2
Параметр QPel формата : Нет
Параметр GMC формата : Без точки перехода
Параметр матрицы формата : Default (MPEG)
Идентификатор кодека : XVID
Идентификатор кодека/Подсказка : XviD
Продолжительность : 1 ч. 39 м.
Битрейт : 1839 Кбит/сек
Ширина : 720 пикселей
Высота : 304 пикселя
Соотношение сторон : 2,35:1
Частота кадров : 25,000 кадров/сек
Цветовое пространство : YUV
Субдискретизация насыщенности : 4:2:0
Битовая глубина : 8 бит
Тип развёртки : Прогрессивная
Метод сжатия : С потерями
Бит/(Пиксели*Кадры) : 0.289
Размер потока : 1,29 Гбайт (89%)
Библиотека кодирования : XviD 1.2.1 (UTC 2008-12-04)
Аудио
Идентификатор : 1
Формат : AC-3
Формат/Информация : Audio Coding 3
Расширение режима : CM (complete main)
Параметр Endianness формата : Big
Идентификатор кодека : 2000
Продолжительность : 1 ч. 39 м.
Вид битрейта : Постоянный
Битрейт : 192 Кбит/сек
Каналы : 2 канала
Расположение каналов : Front: L R
Частота : 48,0 КГц
Метод сжатия : С потерями
Размер потока : 160 Мбайт (11%)
Выравнивание : Разделение по промежуткам
Продолжительность промежутка : 40 мс. (1,00 видеокадр)
Время предзагрузки промежутка : 500 мс.
Скриншоты:Время раздачи: 24/7, до 5 скачавших.
Яндекс.Метрика
Рейтинг@Mail.ru