[ Сегодня на трекере фрилич! Идет свободное скачивание без начисления Download ]

Питер-Москва [01-04 из 04] (2015,Комедия) SATRip

 

Создавать темы 21-Сен-2015 12:12

-Питер-Москва [01-04 из 04] (2015) SATRip-Информация о фильме
Название: Питер-Москва-Год выхода: 2015-Жанр: Комедия-Режиссер: Саша Кириенко-В ролях: Евгений Стычкин, Наталья Романычева, Виктория Романенко, Марина Коняшкина, Анна Банщикова, Фёдор Лавров, Виталий Хаев, Владислав Ветров, Ольга Прокофьева, Дмитрий Астрахан, Александр Семчев, Екатерина Шевченко, Мариэтта Цигаль-Полищук, Александр Числов, Кристина Ларина-О фильме:
Денис, пилот корабля на рейсах Москва - Санкт-Петербург, без памяти влюбляется в Варю. Она кажется ему единственной и неповторимой, но неожиданно в Питере он встречает Эллу, которая ни в чем не уступает его возлюбленной из Москвы. Второй пилот Анна пытается помочь разобраться коллеге в его нелегком положении.-Страна: Россия
Производство: ООО "МАРС МЕДИА Энтертейтмент"
Продолжительность: ~ 00:50:00 серия
Перевод: Не требуется
Файл
Кодек: XviD
Качество: SATRip
Видео: 720x400 (1.80:1), 25 fps, XviD build 50 ~1800 kbps avg, 0.25 bit/pixel
Звук: 48 kHz, MPEG Layer 3, 2 ch, ~128.00 kbps avg

Скриншоты

MediaInfo

Общее
Полное имя : D:Piter.Moskva.SATRipPiter.Moskva.01.SATRip.avi
Формат : AVI
Формат/Информация : Audio Video Interleave
Размер файла : 687 Мбайт
Продолжительность : 49 м.
Общий поток : 1938 Кбит/сек
Программа кодирования : VirtualDubMod 1.5.10.3 | www.virtualdub-fr.org || (build 2550/release)
Библиотека кодирования : VirtualDubMod build 2550/release
Видео
Идентификатор : 0
Формат : MPEG-4 Visual
Профиль формата : Advanced [email protected]
Параметр BVOP формата : 2
Параметр QPel формата : Нет
Параметр GMC формата : Без точки перехода
Параметр матрицы формата : Default (MPEG)
Идентификатор кодека : XVID
Идентификатор кодека/Подсказка : XviD
Продолжительность : 49 м.
Битрейт : 1800 Кбит/сек
Ширина : 720 пикселей
Высота : 400 пикселей
Соотношение сторон : 16:9
Частота кадров : 25,000 кадров/сек
Цветовое пространство : YUV
Субдискретизация насыщенности : 4:2:0
Битовая глубина : 8 бит
Тип развёртки : Прогрессивная
Метод сжатия : С потерями
Бит/(Пиксели*Кадры) : 0.250
Размер потока : 638 Мбайт (93%)
Библиотека кодирования : XviD 1.2.1 (UTC 2008-12-04)
Аудио
Идентификатор : 1
Формат : MPEG Audio
Версия формата : Version 1
Профиль формата : Layer 3
Режим : Joint stereo
Расширение режима : MS Stereo
Идентификатор кодека : 55
Идентификатор кодека/Подсказка : MP3
Продолжительность : 49 м.
Вид битрейта : Постоянный
Битрейт : 128 Кбит/сек
Каналы : 2 канала
Частота : 48,0 КГц
Метод сжатия : С потерями
Размер потока : 45,4 Мбайт (7%)
Выравнивание : Соединение по промежуткам
Продолжительность промежутка : 40 мс. (1,00 видеокадр)
Время предзагрузки промежутка : 504 мс.
Библиотека кодирования : LAME3.99r
Настройки программы : -m j -V 4 -q 9 -lowpass 17 -b 128
Яндекс.Метрика
Рейтинг@Mail.ru