Мистики и маги Сталина. Часть 1 (2013) SATRip

 

Создавать темы 18-Дек-2013 05:07

- Мистики и маги Сталина. Часть 1 (2013) SATRip - Режиссер / Телекомпания: Первый канал
Русское название: Мистики и маги Сталина
Оригинальное название:
Год выпуска: 2013
Жанр: Телепередача
Описание:
Всю свою жизнь Иосиф Сталин искал способ обрести бессмертие и сотни раз обманывал судьбу, чтобы выиграть время и попытаться завершить ритуал, который начал еще в молодости. Иосиф Сталин - человек, который держал железной рукой весь Советский Союз, но как обычный деревенский мальчишка смог добиться таких высот? Экстрасенсы подсчитали - он должен был умереть более трехсот раз, но почему-то ему всегда удавалось уйти от смерти. Какую тайну он смог отыскать в древнем разрушенном городе, что за пророчество заставило его бежать из Грузии в Россию, и смог ли он изменить свою роковую судьбу?
В выпуске: Часть 1. Гурджиев
Продолжительность: 00:15:00
Видеокодек: DivX
Качество видео: SATRip
Битрейт видео: ~1500 kb/s
Размер кадра: 704 x 400
Аудиокодек: MP3, 2.0ch.
Битрейт аудио: 128 kb/s

MediaInfo:

Формат : AVI
Формат/Информация : Audio Video Interleave
Размер файла : 176 Мбайт
Продолжительность : 14 м.
Общий поток : 1639 Кбит/сек
Библиотека кодирования : VirtualDub build 32842/release
Видео
Идентификатор : 0
Формат : MPEG-4 Visual
Параметр BVOP формата : 1
Параметр QPel формата : Нет
Параметр GMC формата : Без точки перехода
Параметр матрицы формата : Default (H.263)
Режим смешивания : Сжатый битовый поток
Идентификатор кодека : DX50
Идентификатор кодека/Подсказка : DivX 5
Продолжительность : 14 м.
Битрейт : 1501 Кбит/сек
Ширина : 704 пикселя
Высота : 400 пикселей
Соотношение сторон : 16:9
Частота кадров : 25,000 кадров/сек
Цветовое пространство : YUV
Субдискретизация насыщенности : 4:2:0
Битовая глубина : 8 бит
Тип развёртки : Прогрессивная
Метод сжатия : С потерями
Бит/(Пиксели*Кадры) : 0.213
Размер потока : 161 Мбайт (92%)
Библиотека кодирования : DivX 6.8.5 (UTC 2009-08-20)
Аудио
Идентификатор : 1
Формат : MPEG Audio
Версия формата : Version 1
Профиль формата : Layer 3
Режим : Joint stereo
Расширение режима : MS Stereo
Идентификатор кодека : 55
Идентификатор кодека/Подсказка : MP3
Продолжительность : 14 м.
Вид битрейта : Постоянный
Битрейт : 128 Кбит/сек
Каналы : 2 канала
Частота : 48,0 КГц
Метод сжатия : С потерями
Размер потока : 13,7 Мбайт (8%)
Выравнивание : Разделение по промежуткам
Продолжительность промежутка : 40 мс. (1,00 видеокадр)
Время предзагрузки промежутка : 500 мс.
Скриншоты:
Время раздачи: 24/7. До первых 5 скачавших.
Яндекс.Метрика
Рейтинг@Mail.ru