[ Сегодня на трекере фрилич! Идет свободное скачивание без начисления Download ]

Черные кошки (2013) WEB-DLRip [12 серий из 12]

 

Создавать темы 18-Дек-2013 04:55

-Черные кошки (2013) WEB-DLRip [12 серий из 12]- Русское название: Черные кошки
Выпущено: Россия, «Марс Медиа», «Продюсерский центр «ГОРАД», «Студия «Пантократор»
Год выпуска: 2013
Жанр: Военный, Драма
Перевод: Оригинал (Русский)
Субтитры: Отсутствуют

Дата российской премьеры: 9 декабря 2013
Режиссер: Евгений Лаврентьев
Актеры: Павел Деревянко, Марина Коняшкина, Ольга Ломоносова, Евгений Сидихин, Павел Трубинер, Роман Лукьянов, Алексей Комашко, Михаил Хмуров, Мария Антонова, Вадим Норштейн, Богдан Колесник, Сергей Деньга, Виктор Демковский
Описание фильма:
1947 год. Ростов-на-Дону. В стране, обескровленной войной, царят голод и разруха. Хлеб - в буквальном смысле на вес золота, а стоимость человеческой жизни равняется нулю. Растет число преступлений, появляются бандитские группировки, которые контролируют целые города. Подобно черным кошкам, они появляются незамеченными под покровом ночи, и легко уходят с места преступления. Банда, действующая в Ростове, грабит продовольственный склад, оставляя кровавые следы. Сотрудник уголовного розыска майор Егор Драгун подозревает, что в ней действуют не обычные уголовники. Его подозрения оправдываются: под бандитов, запутывая следы, маскируются бывшие сотрудники вермахта. Их истинная цель - захват известного немецкого ученого, который находится в лагере для военнопленных на территории Ростова-на-Дону. В Германии ученый работал над созданием атомной бомбы. Если вывезти его в Аргентину, куда после войны переместились фашистские группировки, и дать закончить работу, может начаться ядерная война. Цель Драгуна и его подручных - найти и обезвредить преступников. Помощь приходит, откуда не ждали - со стороны настоящих уголовников. Объединившись ради общей цели, они не дадут развязать новую войну.
Продолжительность: 12 х ~ 00:49:20 серия
Качество видео: WEB-DLRip
Видеокодек: Xvid
Битрейт видео: ~1357 Kbit/s
Размер кадра: 720 x 400
Аудиокодек: AC3, 2.0
Битрейт аудио: 192 Kbit/s

MediaInfo

Общее
Полное имя : D:\Торренты\ФИЛЬМЫ торента\Черные кошки.2013.WEB-DLRip\Черные кошки.01.avi
Формат : AVI
Формат/Информация : Audio Video Interleave
Размер файла : 550 Мбайт
Продолжительность : 49 м.
Общий поток : 1559 Кбит/сек
Программа кодирования : VirtualDubMod 1.5.10.2 (build 2540/release)
Библиотека кодирования : VirtualDubMod build 2540/release
Видео
Идентификатор : 0
Формат : MPEG-4 Visual
Профиль формата : Advanced [email protected]
Параметр BVOP формата : 2
Параметр QPel формата : Нет
Параметр GMC формата : Без точки перехода
Параметр матрицы формата : Default (MPEG)
Идентификатор кодека : XVID
Идентификатор кодека/Подсказка : XviD
Продолжительность : 49 м.
Битрейт : 1357 Кбит/сек
Ширина : 720 пикс.
Высота : 400 пикс.
Соотношение сторон : 16:9
Частота кадров : 25,000 кадр/сек
Цветовое пространство : YUV
Подвыборка цветности : 4:2:0
Битовая глубина : 8 бит
Тип развёртки : Прогрессивная
Метод сжатия : С потерями
Бит/(Пиксели*Кадры) : 0.188
Размер потока : 479 Мбайт (87%)
Библиотека кодирования : XviD 64
Аудио
Идентификатор : 1
Формат : AC-3
Формат/Информация : Audio Coding 3
Расширение режима : CM (complete main)
Идентификатор кодека : 2000
Продолжительность : 49 м.
Вид битрейта : Постоянный
Битрейт : 192 Кбит/сек
Каналы : 2 канала
Расположение каналов : Front: L R
Частота : 48,0 КГц
Битовая глубина : 16 бит
Метод сжатия : С потерями
Размер потока : 67,8 Мбайт (12%)
Выравнивание : Разделение по промежуткам
Продолжительность промежутка : 40 мс. (1,00 видеокадр)
Время предзагрузки промежутка : 500 ms
Скриншоты:
Время раздачи: 24/7 по возможности
Яндекс.Метрика
Рейтинг@Mail.ru