[ Сегодня на трекере фрилич! Идет свободное скачивание без начисления Download ]

Опасное заблуждение [01-04 из 04] (2015,Детектив, триллер) SATRip

 

Создавать темы 20-Сен-2015 18:44

-Опасное заблуждение [01-04 из 04] (2015) SATRip-Информация о фильме
Название: Опасное заблуждение
Год выхода: 2015-Жанр: Детектив, триллер-Режиссер: Артур Румынский-В ролях: Елена Полякова, Владимир Кошевой, Олег Масленников-Войтов, Антон Сёмкин, Арсений Гусев, Настя Майорова, Григорий Середа, Александр Волков, Сергей Апрельский, Елизавета Запорожец, Полина Федина, Татьяна Ташкова, Александр Хмельницкий, Сергей Карякин, Владислав Шкляев, Елена Бушуева, Александр Хващинский-О фильме:
Алина изучает редкий и смертоносный вирус «Конго-29», чтобы создать вакцину. Ей удается первой во всем мире вывести формулу, но в тот же день она попадает в серьезную аварию. Очнувшись в больнице, Алина не может ничего вспомнить. Мало того, не узнает своего мужа и детей, начальника – генерала медицинской службы, который сообщает, что лаборатория сгорела, формула вируса утеряна, и надо как можно быстрее ее восстановить. Алине ставят диагноз «синдром Капгра» – это редкое психическое расстройство, когда пациент убежден, что его близких подменили двойниками. Она не верит врачам, но вынуждена подыграть и согласиться на амбулаторное лечение. Вернувшись домой, который кажется ей чужим, Алина начинает собственное расследование…-Страна: Россия
Производство: ООО "МАРС МЕДИА Энтертейтмент"
Продолжительность: ~00:44:00 серия
Перевод: Не требуется
Файл
Кодек: Xvid
Качество: SATRip
Видео: 720x448, 25fps, 1800kbps
Звук: 48 kHz, MPEG Layer 3, 2 ch, ~128.00 kbps avg

Скриншоты

MediaInfo

Общее
Полное имя : D:Opasnoe.zabluzhdenie.2015.SATRipOpasnoe.zabluzhdenie.01.2015.SATRip.avi
Формат : AVI
Формат/Информация : Audio Video Interleave
Размер файла : 614 Мбайт
Продолжительность : 44 м.
Общий поток : 1938 Кбит/сек
Программа кодирования : VirtualDubMod 1.5.10.3 | www.virtualdub-fr.org || (build 2550/release)
Библиотека кодирования : VirtualDubMod build 2550/release
Видео
Идентификатор : 0
Формат : MPEG-4 Visual
Профиль формата : Advanced [email protected]
Параметр BVOP формата : 2
Параметр QPel формата : Нет
Параметр GMC формата : Без точки перехода
Параметр матрицы формата : Default (MPEG)
Идентификатор кодека : XVID
Идентификатор кодека/Подсказка : XviD
Продолжительность : 44 м.
Битрейт : 1800 Кбит/сек
Ширина : 720 пикселей
Высота : 448 пикселей
Соотношение сторон : 16:10
Частота кадров : 25,000 кадров/сек
Цветовое пространство : YUV
Субдискретизация насыщенности : 4:2:0
Битовая глубина : 8 бит
Тип развёртки : Прогрессивная
Метод сжатия : С потерями
Бит/(Пиксели*Кадры) : 0.223
Размер потока : 570 Мбайт (93%)
Библиотека кодирования : XviD 1.2.1 (UTC 2008-12-04)
Аудио
Идентификатор : 1
Формат : MPEG Audio
Версия формата : Version 1
Профиль формата : Layer 3
Режим : Joint stereo
Расширение режима : MS Stereo
Идентификатор кодека : 55
Идентификатор кодека/Подсказка : MP3
Продолжительность : 44 м.
Вид битрейта : Постоянный
Битрейт : 128 Кбит/сек
Каналы : 2 канала
Частота : 48,0 КГц
Метод сжатия : С потерями
Размер потока : 40,6 Мбайт (7%)
Выравнивание : Соединение по промежуткам
Продолжительность промежутка : 40 мс. (1,00 видеокадр)
Время предзагрузки промежутка : 504 мс.
Библиотека кодирования : LAME3.99r
Настройки программы : -m j -V 4 -q 2 -lowpass 17 -b 128
Яндекс.Метрика
Рейтинг@Mail.ru