[ Сегодня на трекере фрилич! Идет свободное скачивание без начисления Download ]

Франклин и Бэш / Компаньоны / Franklin & Bash (2013) WEB-DLRip (Сезон 3 / Серии 1-2 из 10) BaibaKo (Обновляемая)

 

Создавать темы 18-Дек-2013 04:52

-Франклин и Бэш / Компаньоны / Franklin & Bash (2013) WEB-DLRip (Сезон 3 / Серии 1-2 из 10) BaibaKo (Обновляемая)- Год выпуска: 2013
Страна: США
Жанр: драма, комедия
Перевод: Многоголосый закадровый, профессиональный - BaibaKo

Автор перевода: Светлана Самойленко
Озвучка: Ольга Мотрич, Елена Григорьева, Артемий Мирон и Александр Фурман
Монтаж: Виталий Мартыняк

Режиссер: Джейсон Энслер, Эндрю Флеминг, Стив Робин
Актеры: Марк-Пол Госселаар, Брекин Мейер, Рид Даймонд, Дэна Дэвис, Кумэйл Нанджиани, Малкольм МакДауэлл, Гарсель Бове, Стефани Карпентьери, Клэр Коффи, Кристина Валенсьяга и др.
Описание фильма:
Джаред Франклин и Питер Бэш — два адвоката-самородка, которые постоянно попадают в неприятности. После громкой победы они были приняты на работу в престижную юридическую фирму «Инфелд Дэниелс», чтобы "вдохнуть в неё жизнь". В 3-м сезоне им предстоит работать ещё и на Рэйчел Кинг (Хизер Локлир), которая сначала поставила их в неловкое положение на телешоу о нудизме, а затем и вовсе заняла в фирме руководящий пост.
Продолжительность: ~00:42:00 серия
Качество видео: WEB-DLRip
Видеокодек: Xvid
Формат: AVI
Битрейт видео: ~1484 kb/s
Размер кадра: 720х400 (16:9)
Аудио Rus: (MPEG Layer 3, 48,0 kHz, 2 ch, 192 kb/s) - многоголосый закадровый
Аудио Eng: (MPEG Layer 3, 48,0 kHz, 2 ch, 192 kb/s) - оригинал Сэмпл

MediaInfo

Общее
Полное имя : D:\Франклин и Бэш (Сезон 3) Franklin & Bash (2013) WEBDLRip - BaibaKo\Franklin.&.Bash.s03e01.WEB-DLRip.XviD.Rus.Eng.BaibaKo.tv.avi
Формат : AVI
Формат/Информация : Audio Video Interleave
Размер файла : 567 Мбайт
Продолжительность : 42 м.
Общий поток : 1882 Кбит/сек
Программа кодирования : VirtualDubModRus 1.5.10.2 (build 2542/release)
Библиотека кодирования : VirtualDubMod build 2542/release
Видео
Идентификатор : 0
Формат : MPEG-4 Visual
Профиль формата : Advanced [email protected]
Параметр BVOP формата : 2
Параметр QPel формата : Нет
Параметр GMC формата : Без точки перехода
Параметр матрицы формата : Default (H.263)
Идентификатор кодека : XVID
Идентификатор кодека/Подсказка : XviD
Продолжительность : 42 м.
Битрейт : 1484 Кбит/сек
Ширина : 720 пикселей
Высота : 400 пикселей
Соотношение сторон : 16:9
Частота кадров : 23,976 кадра/сек
Цветовое пространство : YUV
Субдискретизация насыщенности : 4:2:0
Битовая глубина : 8 бит
Тип развёртки : Прогрессивная
Метод сжатия : С потерями
Бит/(Пиксели*Кадры) : 0.215
Размер потока : 447 Мбайт (79%)
Библиотека кодирования : XviD 64
Аудио #1
Идентификатор : 1
Формат : MPEG Audio
Версия формата : Version 1
Профиль формата : Layer 3
Режим : Joint stereo
Идентификатор кодека : 55
Идентификатор кодека/Подсказка : MP3
Продолжительность : 42 м.
Вид битрейта : Постоянный
Битрейт : 192 Кбит/сек
Каналы : 2 канала
Частота : 48,0 КГц
Метод сжатия : С потерями
Размер потока : 57,8 Мбайт (10%)
Выравнивание : Разделение по промежуткам
Продолжительность промежутка : 42 мс. (1,00 видеокадр)
Время предзагрузки промежутка : 500 мс.
Аудио #2
Идентификатор : 2
Формат : MPEG Audio
Версия формата : Version 1
Профиль формата : Layer 3
Режим : Joint stereo
Идентификатор кодека : 55
Идентификатор кодека/Подсказка : MP3
Продолжительность : 42 м.
Вид битрейта : Постоянный
Битрейт : 192 Кбит/сек
Каналы : 2 канала
Частота : 48,0 КГц
Метод сжатия : С потерями
Размер потока : 57,8 Мбайт (10%)
Выравнивание : Разделение по промежуткам
Продолжительность промежутка : 42 мс. (1,00 видеокадр)
Время предзагрузки промежутка : 500 мс.

Список серий

01. Coffee and Cream / Кофе со сливками
02. Dead and Alive / Живым или мёртвым

Раздача ведётся путём добавления новых серий

Раздача ведётся путём добавления новых серий; при каждом добавлении создаётся новый торрент. Чтобы начать докачку новой серии, пользователям необходимо сделать следующее:
(1) остановить скачивание,
(2) удалить старый торрент у себя из клиента (старые серии удалять не надо),
(3) скачать новый торрент и запустить его у себя в клиенте вместо старого, при этом указать клиенту путь в старую папку куда и должно происходить скачивание новых серий.
Ваш клиент при этом должен произвести хеширование (проверку) старой папки (если не производит сам - помогите ему сделать это), и будет докачивать только те серии которых у вас ещё нет. Старые серии при этом не удаляются, а продолжают раздаваться!
Eсли вы уже удалили старые серии, то предотвратить повторную закачку старых серий можно, отжав галочку в соответствующих местах при запуске нового торрента. По возможности, желательно не удалять старые серии как можно дольше чтобы релизёр не столько продолжал раздавать старые серии, а смог сконцентрироваться на новых.
Скриншоты:
Время раздачи: 24/7 - круглосуточно (по возможности)
Яндекс.Метрика
Рейтинг@Mail.ru