[ Сегодня на трекере фрилич! Идет свободное скачивание без начисления Download ]

(Psychedelic Rock, Progressive Rock) David Gilmour - Rattle That Lock - 2015 [FLAC, tracks+.cue, lossless]

 

Создавать темы 18-Сен-2015 12:22

-David Gilmour / Rattle That Lock-- Год издания: 2015
Страна: UK
Жанр: Psychedelic Rock, Progressive Rock
Продолжительность: 00:51:26-Лейбл издания: Sony Music
Страна-выпуска диска: Germany
Номер по каталогу: LC 00162
Формат: FLAC
Битрейт аудио: lossless
Тип рипа: tracks+.cue
Наличие сканов в содержимом раздачи: да

Трэклист

01. 5 a.m. (03:05)
02. Rattle That Lock (04:56)
03. Faces Of Stone (05:33)
04. A Boat Lies Waiting (04:35)
05. Dancing Right In Front Of Me (06:12)
06. In Any Tongue (06:47)
07. Beauty (04:29)
08. The Girl In The Yellow Dress (05:26)
09. Today (05:56)
10. And Then... (04:30)

Лог Audiochecker

AUDIOCHECKER v2.0 beta (build 457) - by Dester - [email protected]
~~~~~~~~~~~~~~~~~~~~~~~~~~~~~~~~~~
Started at: четверг, 17. 09. 2015. - 13:27.04
10 files found
01 -===- C:\Users\Андрей\Desktop\David Gilmour - Rattle That Lock (2015)\01 - 5 a.m..flac
  Extracted successfully
  Conclusion: this track is CDDA with probability 100%
  Tempfile successfully deleted.
02 -===- C:\Users\Андрей\Desktop\David Gilmour - Rattle That Lock (2015)\02 - Rattle That Lock.flac
  Extracted successfully
  Conclusion: this track is CDDA with probability 100%
  Tempfile successfully deleted.
03 -===- C:\Users\Андрей\Desktop\David Gilmour - Rattle That Lock (2015)\03 - Faces Of Stone.flac
  Extracted successfully
  Conclusion: this track is CDDA with probability 100%
  Tempfile successfully deleted.
04 -===- C:\Users\Андрей\Desktop\David Gilmour - Rattle That Lock (2015)\04 - A Boat Lies Waiting.flac
  Extracted successfully
  Conclusion: this track is CDDA with probability 100%
  Tempfile successfully deleted.
05 -===- C:\Users\Андрей\Desktop\David Gilmour - Rattle That Lock (2015)\05 - Dancing Right In Front Of Me.flac
  Extracted successfully
  Conclusion: this track is CDDA with probability 100%
  Tempfile successfully deleted.
06 -===- C:\Users\Андрей\Desktop\David Gilmour - Rattle That Lock (2015)\06 - In Any Tongue.flac
  Extracted successfully
  Conclusion: this track is CDDA with probability 100%
  Tempfile successfully deleted.
07 -===- C:\Users\Андрей\Desktop\David Gilmour - Rattle That Lock (2015)\07 - Beauty.flac
  Extracted successfully
  Conclusion: this track is CDDA with probability 99%
  Tempfile successfully deleted.
08 -===- C:\Users\Андрей\Desktop\David Gilmour - Rattle That Lock (2015)\08 - The Girl In The Yellow Dress.flac
  Extracted successfully
  Conclusion: this track is CDDA with probability 100%
  Tempfile successfully deleted.
09 -===- C:\Users\Андрей\Desktop\David Gilmour - Rattle That Lock (2015)\09 - Today.flac
  Extracted successfully
  Conclusion: this track is CDDA with probability 100%
  Tempfile successfully deleted.
10 -===- C:\Users\Андрей\Desktop\David Gilmour - Rattle That Lock (2015)\10 - And Then....flac
  Extracted successfully
  Conclusion: this track is CDDA with probability 100%
  Tempfile successfully deleted.
Finished at: четверг, 17. 09. 2015. - 13:33.01 (operation time: 0:05.57)

Индексная карта (non-compilant .cue)

PERFORMER "David Gilmour"
TITLE "Rattle That Lock"
FILE "David Gilmour - Rattle That Lock\01 - 5 a.m..flac" WAVE
  TRACK 01 AUDIO
    TITLE "5 a.m."
    PERFORMER "David Gilmour"
    INDEX 01 00:00:00
FILE "David Gilmour - Rattle That Lock\02 - Rattle That Lock.flac" WAVE
  TRACK 02 AUDIO
    TITLE "Rattle That Lock"
    PERFORMER "David Gilmour"
    INDEX 01 00:00:00
FILE "David Gilmour - Rattle That Lock\03 - Faces Of Stone.flac" WAVE
  TRACK 03 AUDIO
    TITLE "Faces Of Stone"
    PERFORMER "David Gilmour"
    INDEX 01 00:00:00
FILE "David Gilmour - Rattle That Lock\04 - A Boat Lies Waiting.flac" WAVE
  TRACK 04 AUDIO
    TITLE "A Boat Lies Waiting"
    PERFORMER "David Gilmour"
    INDEX 01 00:00:00
FILE "David Gilmour - Rattle That Lock\05 - Dancing Right In Front Of Me.flac" WAVE
  TRACK 05 AUDIO
    TITLE "Dancing Right In Front Of Me"
    PERFORMER "David Gilmour"
    INDEX 01 00:00:00
FILE "David Gilmour - Rattle That Lock\06 - In Any Tongue.flac" WAVE
  TRACK 06 AUDIO
    TITLE "In Any Tongue"
    PERFORMER "David Gilmour"
    INDEX 01 00:00:00
FILE "David Gilmour - Rattle That Lock\07 - Beauty.flac" WAVE
  TRACK 07 AUDIO
    TITLE "Beauty"
    PERFORMER "David Gilmour"
    INDEX 01 00:00:00
FILE "David Gilmour - Rattle That Lock\08 - The Girl In The Yellow Dress.flac" WAVE
  TRACK 08 AUDIO
    TITLE "The Girl In The Yellow Dress"
    PERFORMER "David Gilmour"
    INDEX 01 00:00:00
FILE "David Gilmour - Rattle That Lock\09 - Today.flac" WAVE
  TRACK 09 AUDIO
    TITLE "Today"
    PERFORMER "David Gilmour"
    INDEX 01 00:00:00
FILE "David Gilmour - Rattle That Lock\10 - And Then....flac" WAVE
  TRACK 10 AUDIO
    TITLE "And Then..."
    PERFORMER "David Gilmour"
    INDEX 01 00:00:00
-

Доп. информация:

Гитарист и вокалист Pink Floyd Дэвид Гилмор представил свой новый, уже четвертый сольный альбом «Rattle That Lock». Несмотря на обилие почетных гостей и сессионных профи, большая часть инструментальных партий принадлежит самому Гилмору. Мы можем констатировать, что в этом альбоме не так уж много привычно флойдовского, и самое удивительное заключается в том, что это как раз и хорошо. Запись скорее соотносится с сольными работами таких его друзей из Roxy Music, как Брайан Ферри (в одном треке, заглавном) и особенно Фила Манзанеры, который выступил сопродюсером альбома. Отдав дань памяти своему соратнику по великой группе Рику Райту в недавнем альбоме «The Endless River», Дэвид Гилмор считает историю Pink Floyd завершенной. «Все проходит, и я не хочу возвращаться назад», - сказал музыкант. После выхода альбома Дэвид Гилмор собирается вернуться и к концертной деятельности: в 2015-2016 годах снова даст несколько концертов в Европе и Северной Америке. В том числе и в легендарном зале Hollywood Bowl, в котором выступали еще юные The Beatles.
-Не забываем говорить
Яндекс.Метрика
Рейтинг@Mail.ru