(New Age, Celtic) France Ellul featuring Govannen - Spirits Of The Forest - 2009, FLAC (tracks+.cue), lossless

 

Создавать темы 18-Дек-2013 04:24

France Ellul featuring Govannen / Spirits Of The Forest
Жанр: New Age, Celtic
Страна-производитель диска: UK
Год издания: 2009
Издатель (лейбл): Paradise Music
Номер по каталогу: PMCD0154
Аудиокодек: FLAC (*.flac)
Тип рипа: tracks+.cue
Битрейт аудио: lossless
Продолжительность: 51:53
Источник (релизер): What.cd
Наличие сканов в содержимом раздачи: нет-Треклист:
01. The Forest Awakes (7:15)
02. Brightness (5:09)
03. Dreamer in The Woods (4:40)
04. Zephyr (4:42)
05. Secret Path (4:32)
06. Between Showers (2:46)
07. Elder and Elm (4:10)
08. The Enchanted Glade (6:32)
09. Midnight (Spirits Dance) (3:41)
10. Spirits of The Forest (New Dawn) (8:26)

Лог создания рипа

X Lossless Decoder version 20120908 (141.1)
XLD extraction logfile from 2012-09-21 07:08:22 +1000
France Ellul / Spirits of the Forest
Used drive : MATSHITA DVD-R UJ-8A8 (revision HB14)
Ripper mode : XLD Secure Ripper
Disable audio cache : OK for the drive with a cache less than 1375KiB
Make use of C2 pointers : NO
Read offset correction : 102
Max retry count : 20
Gap status : Analyzed, Appended (except HTOA)
TOC of the extracted CD
Track | Start | Length | Start sector | End sector
---------------------------------------------------------
1 | 00:00:00 | 07:14:52 | 0 | 32601
2 | 07:14:52 | 05:08:69 | 32602 | 55770
3 | 12:23:46 | 04:39:38 | 55771 | 76733
4 | 17:03:09 | 04:42:02 | 76734 | 97885
5 | 21:45:11 | 04:32:13 | 97886 | 118298
6 | 26:17:24 | 02:46:34 | 118299 | 130782
7 | 29:03:58 | 04:09:58 | 130783 | 149515
8 | 33:13:41 | 06:31:74 | 149516 | 178914
9 | 39:45:40 | 03:41:09 | 178915 | 195498
10 | 43:26:49 | 08:26:23 | 195499 | 233471
AccurateRip Summary
Disc not found in AccurateRip DB.
All Tracks
Album gain : -3.08 dB
Peak : 0.988708
Statistics
Read error : 0
Jitter error (maybe fixed) : 0
Retry sector count : 0
Damaged sector count : 0
Track 01
Filename : /XLD Rips/France Ellul - Spirits of the Forest [FLAC]/01 The Forest Awakes.flac
Pre-gap length : 00:02:00
Track gain : -3.11 dB
Peak : 0.988525
CRC32 hash (test run) : D151B59D
CRC32 hash : D151B59D
CRC32 hash (skip zero) : 478311EC
AccurateRip v1 signature : 62B4597B
AccurateRip v2 signature : 8BF76B98
->Track not present in AccurateRip database.
Statistics
Read error : 0
Jitter error (maybe fixed) : 0
Retry sector count : 0
Damaged sector count : 0
Track 02
Filename : /XLD Rips/France Ellul - Spirits of the Forest [FLAC]/02 Brightness.flac
Pre-gap length : 00:02:00
Track gain : -2.09 dB
Peak : 0.988617
CRC32 hash (test run) : A371C824
CRC32 hash : A371C824
CRC32 hash (skip zero) : F91AD808
AccurateRip v1 signature : 8EA2F677
AccurateRip v2 signature : DC06026B
->Track not present in AccurateRip database.
Statistics
Read error : 0
Jitter error (maybe fixed) : 0
Retry sector count : 0
Damaged sector count : 0
Track 03
Filename : /XLD Rips/France Ellul - Spirits of the Forest [FLAC]/03 Dreamer in The Woods.flac
Pre-gap length : 00:02:00
Track gain : -1.94 dB
Peak : 0.815887
CRC32 hash (test run) : 5A823E12
CRC32 hash : 5A823E12
CRC32 hash (skip zero) : 1810BD50
AccurateRip v1 signature : 6E3B4F5C
AccurateRip v2 signature : AD448D4F
->Track not present in AccurateRip database.
Statistics
Read error : 0
Jitter error (maybe fixed) : 0
Retry sector count : 0
Damaged sector count : 0
Track 04
Filename : /XLD Rips/France Ellul - Spirits of the Forest [FLAC]/04 Zephyr.flac
Pre-gap length : 00:02:00
Track gain : -4.99 dB
Peak : 0.988708
CRC32 hash (test run) : 71561765
CRC32 hash : 71561765
CRC32 hash (skip zero) : FD49FBF6
AccurateRip v1 signature : 7FF36B48
AccurateRip v2 signature : AAC34A2C
->Track not present in AccurateRip database.
Statistics
Read error : 0
Jitter error (maybe fixed) : 0
Retry sector count : 0
Damaged sector count : 0
Track 05
Filename : /XLD Rips/France Ellul - Spirits of the Forest [FLAC]/05 Secret Path.flac
Pre-gap length : 00:02:00
Track gain : -0.10 dB
Peak : 0.975769
CRC32 hash (test run) : F3A6BB0C
CRC32 hash : F3A6BB0C
CRC32 hash (skip zero) : 99EE157F
AccurateRip v1 signature : 9ED25E08
AccurateRip v2 signature : E8D4C62A
->Track not present in AccurateRip database.
Statistics
Read error : 0
Jitter error (maybe fixed) : 0
Retry sector count : 0
Damaged sector count : 0
Track 06
Filename : /XLD Rips/France Ellul - Spirits of the Forest [FLAC]/06 Between Showers.flac
Pre-gap length : 00:02:00
Track gain : 0.86 dB
Peak : 0.691132
CRC32 hash (test run) : E7219859
CRC32 hash : E7219859
CRC32 hash (skip zero) : 8D90E28D
AccurateRip v1 signature : D18322E9
AccurateRip v2 signature : A817DBDC
->Track not present in AccurateRip database.
Statistics
Read error : 0
Jitter error (maybe fixed) : 0
Retry sector count : 0
Damaged sector count : 0
Track 07
Filename : /XLD Rips/France Ellul - Spirits of the Forest [FLAC]/07 Elder and Elm.flac
Pre-gap length : 00:02:00
Track gain : 1.19 dB
Peak : 0.657440
CRC32 hash (test run) : 90585FA7
CRC32 hash : 90585FA7
CRC32 hash (skip zero) : 48F14B95
AccurateRip v1 signature : C25477C3
AccurateRip v2 signature : 7CD8D2AB
->Track not present in AccurateRip database.
Statistics
Read error : 0
Jitter error (maybe fixed) : 0
Retry sector count : 0
Damaged sector count : 0
Track 08
Filename : /XLD Rips/France Ellul - Spirits of the Forest [FLAC]/08 The Enchanted Glade.flac
Pre-gap length : 00:02:00
Track gain : -3.71 dB
Peak : 0.988678
CRC32 hash (test run) : D8CC9D2E
CRC32 hash : D8CC9D2E
CRC32 hash (skip zero) : CF3282B1
AccurateRip v1 signature : 44021D9F
AccurateRip v2 signature : 0AC4076B
->Track not present in AccurateRip database.
Statistics
Read error : 0
Jitter error (maybe fixed) : 0
Retry sector count : 0
Damaged sector count : 0
Track 09
Filename : /XLD Rips/France Ellul - Spirits of the Forest [FLAC]/09 Midnight (Spirits Dance).flac
Pre-gap length : 00:02:00
Track gain : -3.09 dB
Peak : 0.988708
CRC32 hash (test run) : 559078CC
CRC32 hash : 559078CC
CRC32 hash (skip zero) : C2443C80
AccurateRip v1 signature : C8E6C209
AccurateRip v2 signature : DA6273E3
->Track not present in AccurateRip database.
Statistics
Read error : 0
Jitter error (maybe fixed) : 0
Retry sector count : 0
Damaged sector count : 0
Track 10
Filename : /XLD Rips/France Ellul - Spirits of the Forest [FLAC]/10 Spirits of The Forest (New Dawn).flac
Pre-gap length : 00:02:00
Track gain : -3.15 dB
Peak : 0.988647
CRC32 hash (test run) : E1AABA45
CRC32 hash : E1AABA45
CRC32 hash (skip zero) : E160A9C3
AccurateRip v1 signature : 3BA353C0
AccurateRip v2 signature : 05B42648
->Track not present in AccurateRip database.
Statistics
Read error : 0
Jitter error (maybe fixed) : 0
Retry sector count : 0
Damaged sector count : 0
No errors occurred
End of status report

Содержание индексной карты (.CUE)

TITLE "Spirits of the Forest"
PERFORMER "France Ellul"
REM DATE "2009"
REM DISCID 950C280A
REM REPLAYGAIN_ALBUM_GAIN -3.08 dB
REM REPLAYGAIN_ALBUM_PEAK 0.988708
FILE "01 The Forest Awakes.flac" WAVE
TRACK 01 AUDIO
TITLE "The Forest Awakes"
ISRC GBJKT0800217
FLAGS DCP
REM REPLAYGAIN_TRACK_GAIN -3.11 dB
REM REPLAYGAIN_TRACK_PEAK 0.988525
INDEX 01 00:00:00
TRACK 02 AUDIO
TITLE "Brightness"
ISRC GBJKT0800218
FLAGS DCP
REM REPLAYGAIN_TRACK_GAIN -2.09 dB
REM REPLAYGAIN_TRACK_PEAK 0.988617
INDEX 00 07:12:52
FILE "02 Brightness.flac" WAVE
INDEX 01 00:00:00
TRACK 03 AUDIO
TITLE "Dreamer in The Woods"
ISRC GBJKT0800219
FLAGS DCP
REM REPLAYGAIN_TRACK_GAIN -1.94 dB
REM REPLAYGAIN_TRACK_PEAK 0.815887
INDEX 00 05:06:69
FILE "03 Dreamer in The Woods.flac" WAVE
INDEX 01 00:00:00
TRACK 04 AUDIO
TITLE "Zephyr"
ISRC GBJKT0800220
FLAGS DCP
REM REPLAYGAIN_TRACK_GAIN -4.99 dB
REM REPLAYGAIN_TRACK_PEAK 0.988708
INDEX 00 04:37:38
FILE "04 Zephyr.flac" WAVE
INDEX 01 00:00:00
TRACK 05 AUDIO
TITLE "Secret Path"
ISRC GBJKT0800221
FLAGS DCP
REM REPLAYGAIN_TRACK_GAIN -0.10 dB
REM REPLAYGAIN_TRACK_PEAK 0.975769
INDEX 00 04:40:02
FILE "05 Secret Path.flac" WAVE
INDEX 01 00:00:00
TRACK 06 AUDIO
TITLE "Between Showers"
ISRC GBJKT0800222
FLAGS DCP
REM REPLAYGAIN_TRACK_GAIN 0.86 dB
REM REPLAYGAIN_TRACK_PEAK 0.691132
INDEX 00 04:30:13
FILE "06 Between Showers.flac" WAVE
INDEX 01 00:00:00
TRACK 07 AUDIO
TITLE "Elder and Elm"
ISRC GBJKT0800223
FLAGS DCP
REM REPLAYGAIN_TRACK_GAIN 1.19 dB
REM REPLAYGAIN_TRACK_PEAK 0.657440
INDEX 00 02:44:34
FILE "07 Elder and Elm.flac" WAVE
INDEX 01 00:00:00
TRACK 08 AUDIO
TITLE "The Enchanted Glade"
ISRC GBJKT0800224
FLAGS DCP
REM REPLAYGAIN_TRACK_GAIN -3.71 dB
REM REPLAYGAIN_TRACK_PEAK 0.988678
INDEX 00 04:07:58
FILE "08 The Enchanted Glade.flac" WAVE
INDEX 01 00:00:00
TRACK 09 AUDIO
TITLE "Midnight (Spirits Dance)"
ISRC GBJKT0800225
FLAGS DCP
REM REPLAYGAIN_TRACK_GAIN -3.09 dB
REM REPLAYGAIN_TRACK_PEAK 0.988708
INDEX 00 06:29:74
FILE "09 Midnight (Spirits Dance).flac" WAVE
INDEX 01 00:00:00
TRACK 10 AUDIO
TITLE "Spirits of The Forest (New Dawn)"
ISRC GBJKT0800226
FLAGS DCP
REM REPLAYGAIN_TRACK_GAIN -3.15 dB
REM REPLAYGAIN_TRACK_PEAK 0.988647
INDEX 00 03:39:09
FILE "10 Spirits of The Forest (New Dawn).flac" WAVE
INDEX 01 00:00:00

Лог проверки качества

AUDIOCHECKER v2.0 beta (build 457) - by Dester - [email protected]
~~~~~~~~~~~~~~~~~~~~~~~~~~~~~~~~~~
-=== DO NOT EDIT THIS FILE! ===-
Path: ...\France Ellul - Spirits of the Forest [FLAC]
01 -=- 06 Between Showers.flac -=- CDDA (100%)
02 -=- 07 Elder and Elm.flac -=- CDDA (100%)
03 -=- 08 The Enchanted Glade.flac -=- CDDA (100%)
04 -=- 09 Midnight (Spirits Dance).flac -=- CDDA (99%)
05 -=- 10 Spirits of The Forest (New Dawn).flac -=- CDDA (100%)
06 -=- 01 The Forest Awakes.flac -=- CDDA (100%)
07 -=- 02 Brightness.flac -=- CDDA (100%)
08 -=- 03 Dreamer in The Woods.flac -=- CDDA (100%)
09 -=- 04 Zephyr.flac -=- CDDA (100%)
10 -=- 05 Secret Path.flac -=- CDDA (100%)
Summary 99,90% CDDA
243014756

Об альбоме (сборнике)

http://www.chrisconway.org/cd_france3.html
Яндекс.Метрика
Рейтинг@Mail.ru