Alexandra Stan - All My People (2014) Master 1080p

 

Создавать темы 17-Сен-2015 21:00

-Alexandra Stan - All My People (2014) Master 1080p -Информация о Клипе
Исполнитель: Alexandra Stan
Название: All My People
Год выхода: 2014
Продолжительность: 00:04:18-Файл
Кодек: MPEG4/ISO/AVC/ H.264
Формат: MKV
Качество: Master 1080p
Видео : 1920 x 1080 (1.778) at 60.000 fps 19.6 Мбит/сек
Аудио : AC-3 | 256 Кбит/сек | 48.0 KHz | 2.0 channels

MI

Видео
Идентификатор                            : 1
Формат                                   : AVC
Формат/Информация                        : Advanced Video Codec
Профиль формата                          : [email protected]
Параметр CABAC формата                   : Да
Параметр ReFrames формата                : 3 кадра
Идентификатор кодека                     : V_MPEG4/ISO/AVC
Продолжительность                        : 4 м. 18 с.
Битрейт                                  : 19,6 Мбит/сек
Ширина                                   : 1920 пикселей
Высота                                   : 1080 пикселей
Соотношение сторон                       : 16:9
Режим частоты кадров                     : Постоянный
Частота кадров                           : 60,000 кадров/сек
Стандарт вещания                         : PAL
Цветовое пространство                    : YUV
Субдискретизация насыщенности            : 4:2:0
Битовая глубина                          : 8 бит
Тип развёртки                            : Прогрессивная
Бит/(Пиксели*Кадры)                      : 0.157
Размер потока                            : 604 Мбайт (97%)
Заголовок                                : http://ddgroupclub.ru/
Язык                                     : English
Default                                  : Да
Forced                                   : Нет
Основные цвета                           : BT.709
Характеристики трансфера                 : BT.709
Коэффициенты матрицы                     : BT.709
colour_range                             : Limited
Аудио
Идентификатор                            : 2
Формат                                   : AC-3
Формат/Информация                        : Audio Coding 3
Расширение режима                        : CM (complete main)
Параметр Endianness формата              : Big
Идентификатор кодека                     : A_AC3
Продолжительность                        : 4 м. 18 с.
Вид битрейта                             : Постоянный
Битрейт                                  : 256 Кбит/сек
Каналы                                   : 2 канала
Расположение каналов                     : Front: L R
Частота                                  : 48,0 КГц
Битовая глубина                          : 16 бит
Метод сжатия                             : С потерями
Размер потока                            : 7,89 Мбайт (1%)
Заголовок                                : AC3
Язык                                     : English
Default                                  : Да
Forced                                   : Нет

Скриншоты:

Яндекс.Метрика
Рейтинг@Mail.ru