(Opera, Musical) Andrew Lloyd Webber - The Phantom of the Opera - 1987 [FLAC, image+.cue, lossless]

 

Создавать темы 17-Сен-2015 19:02

-Andrew Lloyd Webber / The Phantom of the Opera-- Год издания: 1987
Страна: UK
Жанр: Opera, Musical
Продолжительность: 03:21:03-Лейбл издания: Polydor
Страна-выпуска диска: UK
Номер по каталогу: 831 273-2
Формат: FLAC
Битрейт аудио: lossless
Тип рипа: image+.cue
Наличие сканов в содержимом раздачи: да

Трэклист

CD 1 | 01:48:16


01. Prologue (01:54)
02. Overture (03:05)
03. Think Of Me (04:09)
04. Angel Of Music (02:21)
05. Little Lotte... - The Mirror...(Angel Of Music) (02:49)
06. The Phantom Of The Opera (05:03)
07. The Music Of The Night (05:42)
08. I Remember... - Stranger Than You Dreamt It... (03:22)
09. Magical Lasso... (01:00)
10. Notes... - Prima Donna (10:56)
11. Poor Fool, He Makes Me Laugh (02:50)
12. Why Have You Brought Me Here... - Raoul, I've Been There... (03:28)
13. All I Ask Of You (04:15)
14. All I Ask Of You (Reprise) (03:20)
01. Prologue (01:54)
02. Overture (03:05)
03. Think Of Me (04:09)
04. Angel Of Music (02:21)
05. Little Lotte... - The Mirror...(Angel Of Music) (02:49)
06. The Phantom Of The Opera (05:03)
07. The Music Of The Night (05:42)
08. I Remember... - Stranger Than You Dreamt It... (03:22)
09. Magical Lasso... (01:00)
10. Notes... - Prima Donna (10:56)
11. Poor Fool, He Makes Me Laugh (02:50)
12. Why Have You Brought Me Here... - Raoul, I've Been There... (03:28)
13. All I Ask Of You (04:15)
14. All I Ask Of You (Reprise) (03:20)

CD 2 | 01:32:47


01. Entr'acte - Act Two - Six Months Later (03:02)
02. Masquerade ; Why So Silent (06:24)
03. Notes... ; Twisted Every Way... (09:41)
04. Wishing You Were Somehow Here Again (03:32)
05. Wandering Child... ; Bravo, Monsieur... (06:25)
06. The Point of No Return (05:33)
07. Down Once More... ; Track Down This Murderer... (11:51)
01. Entr'acte - Act Two - Six Months Later (03:02)
02. Masquerade ; Why So Silent (06:24)
03. Notes... ; Twisted Every Way... (09:41)
04. Wishing You Were Somehow Here Again (03:32)
05. Wandering Child... ; Bravo, Monsieur... (06:25)
06. The Point of No Return (05:33)
07. Down Once More... ; Track Down This Murderer... (11:51)

Лог создания рипа

CD 1

Exact Audio Copy V0.99 prebeta 4 from 23. January 2008
EAC extraction logfile from 18. August 2015, 15:04
Andrew Lloyd Webber / The Phantom of the Opera (disc1)
Used drive  : GIGABYTEGO-D1600C   Adapter: 3  ID: 0
Read mode               : Secure
Utilize accurate stream : Yes
Defeat audio cache      : Yes
Make use of C2 pointers : No
Read offset correction                      : 12
Overread into Lead-In and Lead-Out          : No
Fill up missing offset samples with silence : Yes
Delete leading and trailing silent blocks   : No
Null samples used in CRC calculations       : Yes
Used interface                              : Native Win32 interface for Win NT & 2000
Used output format : Internal WAV Routines
Sample format      : 44.100 Hz; 16 Bit; Stereo
TOC of the extracted CD
     Track |   Start  |  Length  | Start sector | End sector
    ---------------------------------------------------------
        1  |  0:00.33 |  1:53.60 |        33    |     8567
        2  |  1:54.18 |  3:04.60 |      8568    |    22427
        3  |  4:59.03 |  4:08.57 |     22428    |    41084
        4  |  9:07.60 |  2:20.08 |     41085    |    51592
        5  | 11:27.68 |  2:48.47 |     51593    |    64239
        6  | 14:16.40 |  5:02.40 |     64240    |    86929
        7  | 19:19.05 |  5:41.08 |     86930    |   112512
        8  | 25:00.13 |  3:21.60 |    112513    |   127647
        9  | 28:21.73 |  0:59.12 |    127648    |   132084
       10  | 29:21.10 | 10:55.45 |    132085    |   181254
       11  | 40:16.55 |  2:49.63 |    181255    |   193992
       12  | 43:06.43 |  3:27.32 |    193993    |   209549
       13  | 46:34.00 |  4:14.33 |    209550    |   228632
       14  | 50:48.33 |  3:20.00 |    228633    |   243632
Range status and errors
Selected range
     Filename D:\Andrew Lloyd Webber - The Phantom of the Opera - 1987\Andrew Lloyd Webber - The Phantom of the Opera (disc1).wav
     Peak level 100.0 %
     Range quality 100.0 %
     Test CRC E0A8AA37
     Copy CRC E0A8AA37
     Copy OK
No errors occurred
AccurateRip summary
Track  1  accurately ripped (confidence 2)  [0E0799B8]
Track  2  accurately ripped (confidence 2)  [1E7DAA21]
Track  3  accurately ripped (confidence 2)  [967B2C46]
Track  4  accurately ripped (confidence 2)  [AB5590AE]
Track  5  accurately ripped (confidence 2)  [71C64B9B]
Track  6  accurately ripped (confidence 2)  [50BC1B0D]
Track  7  accurately ripped (confidence 2)  [F396292C]
Track  8  accurately ripped (confidence 2)  [20CA4E56]
Track  9  accurately ripped (confidence 2)  [532FC2A4]
Track 10  accurately ripped (confidence 2)  [9117384B]
Track 11  accurately ripped (confidence 2)  [57C86B2C]
Track 12  accurately ripped (confidence 2)  [2BC8C9BC]
Track 13  accurately ripped (confidence 2)  [552EA650]
Track 14  accurately ripped (confidence 2)  [8B37275F]
All tracks accurately ripped
End of status report

CD 2

Exact Audio Copy V0.99 prebeta 4 from 23. January 2008
EAC extraction logfile from 18. August 2015, 15:18
Andrew Lloyd Webber / The Phantom of the Opera (disc2)
Used drive  : GIGABYTEGO-D1600C   Adapter: 3  ID: 0
Read mode               : Secure
Utilize accurate stream : Yes
Defeat audio cache      : Yes
Make use of C2 pointers : No
Read offset correction                      : 12
Overread into Lead-In and Lead-Out          : No
Fill up missing offset samples with silence : Yes
Delete leading and trailing silent blocks   : No
Null samples used in CRC calculations       : Yes
Used interface                              : Native Win32 interface for Win NT & 2000
Used output format : Internal WAV Routines
Sample format      : 44.100 Hz; 16 Bit; Stereo
TOC of the extracted CD
     Track |   Start  |  Length  | Start sector | End sector
    ---------------------------------------------------------
        1  |  0:00.33 |  3:01.52 |        33    |    13659
        2  |  3:02.10 |  6:23.40 |     13660    |    42424
        3  |  9:25.50 |  9:40.13 |     42425    |    85937
        4  | 19:05.63 |  3:31.12 |     85938    |   101774
        5  | 22:37.00 |  6:24.03 |    101775    |   130577
        6  | 29:01.03 |  5:32.20 |    130578    |   155497
        7  | 34:33.23 | 11:50.35 |    155498    |   208782
Range status and errors
Selected range
     Filename D:\Andrew Lloyd Webber - The Phantom of the Opera - 1987\Andrew Lloyd Webber - The Phantom of the Opera (disc2).wav
     Peak level 100.0 %
     Range quality 100.0 %
     Test CRC B0CF9CBE
     Copy CRC B0CF9CBE
     Copy OK
No errors occurred
AccurateRip summary
Track  1  cannot be verified as accurate (confidence 89)  [9C2D6B5C], AccurateRip returned [BB30ABC0]
Track  2  cannot be verified as accurate (confidence 89)  [FECF8278], AccurateRip returned [D530A4A8]
Track  3  cannot be verified as accurate (confidence 90)  [994D4C25], AccurateRip returned [0FCF3096]
Track  4  cannot be verified as accurate (confidence 91)  [89B85F05], AccurateRip returned [0FC17B26]
Track  5  cannot be verified as accurate (confidence 89)  [6125B264], AccurateRip returned [F136BC16]
Track  6  cannot be verified as accurate (confidence 91)  [4DAB19B7], AccurateRip returned [40A74A32]
Track  7  cannot be verified as accurate (confidence 88)  [0429A2B2], AccurateRip returned [DF270EFD]
No tracks could be verified as accurate
You may have a different pressing from the one(s) in the database
End of status report

Индексная карта (non-compilant .cue)

CD 1

REM GENRE Musical
REM DATE 1987
REM DISCID BF0CB00E
REM COMMENT "ExactAudioCopy v0.99pb4"
PERFORMER "Andrew Lloyd Webber"
TITLE "The Phantom of the Opera (disc1)"
FILE "Andrew Lloyd Webber - The Phantom of the Opera (disc1).wav" WAVE
  TRACK 01 AUDIO
    TITLE "Prologue"
    PERFORMER "Andrew Lloyd Webber"
    INDEX 00 00:00:00
    INDEX 01 00:00:33
  TRACK 02 AUDIO
    TITLE "Overture"
    PERFORMER "Andrew Lloyd Webber"
    INDEX 01 01:54:18
  TRACK 03 AUDIO
    TITLE "Think Of Me"
    PERFORMER "Andrew Lloyd Webber"
    INDEX 01 04:59:03
  TRACK 04 AUDIO
    TITLE "Angel Of Music"
    PERFORMER "Andrew Lloyd Webber"
    INDEX 01 09:07:60
  TRACK 05 AUDIO
    TITLE "Little Lotte... - The Mirror...(Angel Of Music)"
    PERFORMER "Andrew Lloyd Webber"
    INDEX 01 11:27:68
  TRACK 06 AUDIO
    TITLE "The Phantom Of The Opera"
    PERFORMER "Andrew Lloyd Webber"
    INDEX 01 14:16:40
  TRACK 07 AUDIO
    TITLE "The Music Of The Night"
    PERFORMER "Andrew Lloyd Webber"
    INDEX 01 19:19:05
  TRACK 08 AUDIO
    TITLE "I Remember... - Stranger Than You Dreamt It..."
    PERFORMER "Andrew Lloyd Webber"
    INDEX 01 25:00:13
  TRACK 09 AUDIO
    TITLE "Magical Lasso..."
    PERFORMER "Andrew Lloyd Webber"
    INDEX 01 28:21:73
  TRACK 10 AUDIO
    TITLE "Notes... - Prima Donna"
    PERFORMER "Andrew Lloyd Webber"
    INDEX 01 29:21:10
  TRACK 11 AUDIO
    TITLE "Poor Fool, He Makes Me Laugh"
    PERFORMER "Andrew Lloyd Webber"
    INDEX 01 40:16:55
  TRACK 12 AUDIO
    TITLE "Why Have You Brought Me Here... - Raoul, I've Been There..."
    PERFORMER "Andrew Lloyd Webber"
    INDEX 01 43:06:43
  TRACK 13 AUDIO
    TITLE "All I Ask Of You"
    PERFORMER "Andrew Lloyd Webber"
    INDEX 01 46:34:00
  TRACK 14 AUDIO
    TITLE "All I Ask Of You (Reprise)"
    PERFORMER "Andrew Lloyd Webber"
    INDEX 01 50:48:33

CD 2

REM GENRE Musical
REM DATE 1987
REM DISCID 5D0ADF07
REM COMMENT "ExactAudioCopy v0.99pb4"
PERFORMER "Andrew Lloyd Webber"
TITLE "The Phantom of the Opera (disc 2)"
FILE "Andrew Lloyd Webber - The Phantom of the Opera (disc2).wav" WAVE
  TRACK 01 AUDIO
    TITLE "Entr'acte - Act Two - Six Months Later"
    PERFORMER "Andrew Lloyd Webber"
    INDEX 00 00:00:00
    INDEX 01 00:00:33
  TRACK 02 AUDIO
    TITLE "Masquerade ; Why So Silent"
    PERFORMER "Andrew Lloyd Webber"
    INDEX 01 03:02:10
  TRACK 03 AUDIO
    TITLE "Notes... ; Twisted Every Way..."
    PERFORMER "Andrew Lloyd Webber"
    INDEX 01 09:25:50
  TRACK 04 AUDIO
    TITLE "Wishing You Were Somehow Here Again"
    PERFORMER "Andrew Lloyd Webber"
    INDEX 01 19:05:63
  TRACK 05 AUDIO
    TITLE "Wandering Child... ; Bravo, Monsieur..."
    PERFORMER "Andrew Lloyd Webber"
    INDEX 01 22:37:00
  TRACK 06 AUDIO
    TITLE "The Point of No Return"
    PERFORMER "Andrew Lloyd Webber"
    INDEX 01 29:01:03
  TRACK 07 AUDIO
    TITLE "Down Once More... ; Track Down This Murderer..."
    PERFORMER "Andrew Lloyd Webber"
    INDEX 01 34:33:23
-Смотрим и наслаждаемся!

это интересно:

Об альбоме (сборнике)

The Phantom of the Opera - мюзикл Эндрю Ллойда Уэббера, основанный на одноименном романе французского писателя Гастона Леру. Музыка была написана Ллойдом Уэббером, основная часть либретто — Чарльзом Хартом, а его отдельные фрагменты — Ричардом Стилгоу. Сюжет повествует нам о талантливой певице Кристине Даэ, которая становится предметом одержимости таинственного, изуродованного музыкального гения. Премьера мюзикла «Призрак Оперы» состоялась в Вест-Энде в 1986 году и на Бродвее в 1988 году. Спектакль стал самым долгоиграющим мюзиклом в истории Бродвея, перегнав по показам мюзикл «Кошки» в 2006 году. Это второй после "Отверженных" долгоиграющий мюзикл и третий самый долгоиграющий спектакль в истории Вест-Энда. «Призрак Оперы» выиграл премию «Оливера» в 1986 году и премию «Тони» в 1988 году в номинации «Лучший мюзикл». Первый исполнитель роли Призрака — Майкл Кроуфорд выиграл премию «Оливера» в 1986 году и премию «Тони» в 1988 году в номинации «Лучший главный актёр в мюзикле». Шоу было поставлено в 151 городе 30 стран, его посмотрело более 150 миллионов человек. С международными сборами в 6 миллиардов долларов, «Призрак Оперы» — самое кассовое развлекательное событие всех времён. Одна только нью-йоркская постановка собрала 853 миллиона долларов, что делает это шоу вторым самым финансово успешным в истории Бродвея (после «Короля Льва»).
--Не забываем говорить
Яндекс.Метрика
Рейтинг@Mail.ru