[ Сегодня на трекере фрилич! Идет свободное скачивание без начисления Download ]

Под куполом / Under the Dome [S01-03] (2013-2015,Мистический триллер, научная фантастика, экранизация) WEB-DLRip | КПК | LostFilm

 

Создавать темы 16-Сен-2015 16:06

-Под куполом / Under the Dome [S01-03] (2013-2015) WEB-DLRip | КПК-Информация о фильме
Название: Под куполом
Оригинальное название: Under the Dome-Год выхода: 2013-Жанр: Мистический триллер, научная фантастика, экранизация-Режиссеры: Джек Бендер, Нильс Арден Оплев, Кари Скогланд, Мигель Сапочник, Серджо Мимика-Геззан-В ролях: Майк Фогель, Колин Форд, Аиша Хиндс, Александр Кох, Рашель Лефевр, Натали Мартинез, Дин Норрис, Джолин Парди, Бриттани Робертсон, Николас Стронг, Нед Беллами, Дэйл Рауль, Р. Кейт Харрис, Стив Болдуин, Шерри Боулинг, Кевин Сайзмор, Эндрю Фогель, Джеймс Алком, Линдс Эдвардс, Джефф Фэйи, Кристал Мартинез, Маккензи Линтц-О фильме:
Обычным, пригожим осенним днем, город Честерс Миллз, штат Мэн, был внезапно отрезан от остального мира невидимым силовым барьером. Самолеты врезаются в купол и падают, пылая, с небес; садовнику отрезает силовым полем руку; люди, выехавшие в соседний город по делам, не могут вернуться к своим близким; автомобили взрываются от столкновения с куполом. Никто не понимает, что это за барьер, откуда он взялся и исчезнет ли он.- -

Список серий:

Сезон 1:
01. Pilot / Пилот
02. The Fire / Пожар
03. Manhunt / Преследование
04. Outbreak / Вспышка
05. Blue on Blue / Удар по своим
06. The Endless Thirst / Бесконечная жажда
07. Imperfect Circles / Несовершенные круги
08. Thicker Than Water / Кровь не водица
09. The Fourth Hand / Четвёртая рука
10. Let the Games Begin / Да начнутся игры!
11. Speak of the Devil / Помяни чёрта
12. Exigent Circumstances / Чрезвычайные обстоятельства
13. Curtains / Занавес
Сезон 2:
01. Покатятся головы / Heads Will Roll
02. Инвазия / Infestation
03. Форс-мажор / Force Majeure
04. Откровение / Revelation
05. Примирение / Reconciliation
06. Во тьме / In the Dark
07. Возвращение домой / Going Home
08. Пробуждение / Awakening
09. Красная дверь / The Red Door
10. Падение / The Fall
11. Чёрный лёд / Black Ice
12. Поворот / Turn
13. А теперь ступайте / Go Now
Сезон 3:
01-02. Идите дальше/А я останусь (Move On/But I'm Not)
03. Возвращение (Redux)
04. Общность (The Kinship)
05. Аляска (Alaska)
06. В клетке (Caged)
07. Выброс (Ejecta)
08. Переломный момент (Breaking Point)
09. План Б (Plan B)
10. Наследие (Legacy)
11. Любовь - это поле боя (Love Is a Battlefield)
12. Накаливание (Incandescence)
13. Чужой среди нас (The Enemy Within)
Страна: США
Студия: Amblin Television, CBS Television Studios
Продолжительность: 1 х 01:23:21, 37 х ~ 00:43:00
Перевод: Профессиональный (многоголосый, закадровый) [LostFilm]
Файл
Формат: MP4
Качество: WEB-DLRip | КПК
Видео: MPEG-4 AVC (x264), 640x360, ~500 kbps, 23.976 fps
Аудио: AAC LC, 48.0 KHz, 2 ch, 128 Kbps
Субтитры: Нет

Скриншоты

MI

Complete name : L:киноPod.Kupolom.AVC.WEB-DLRip.KPK.LF.GeneralfilmPod.Kupolom.S03.2015.AVC.WEB-DLRip.KPK.LF.GeneralfilmPod.Kupolom.s03e01-02.2015.AVC.WEB-DLRip.KPK.LF.Generalfilm.mp4
Format : MPEG-4
Codec ID : M4V
File size : 378 MiB
Duration : 1h 23mn
Overall bit rate mode : Variable
Overall bit rate : 634 Kbps
Writing application : Lavf53.19.0
Video
ID : 1
Format : AVC
Format/Info : Advanced Video Codec
Format profile : [email protected]
Format settings, CABAC : Yes
Format settings, ReFrames : 8 frames
Codec ID : avc1
Codec ID/Info : Advanced Video Coding
Duration : 1h 23mn
Source duration : 26mn 5s
Bit rate : 500 Kbps
Width : 640 pixels
Height : 360 pixels
Display aspect ratio : 16:9
Frame rate mode : Constant
Frame rate : 23.976 fps
Color space : YUV
Chroma subsampling : 4:2:0
Bit depth : 8 bits
Scan type : Progressive
Bits/(Pixel*Frame) : 0.091
Stream size : 298 MiB (79%)
Source stream size : 298 MiB (79%)
Writing library : x264 core 130 r2273 b3065e6
Encoding settings : cabac=1 / ref=8 / deblock=1:-2:-2 / analyse=0x3:0x133 / me=umh / subme=10 / psy=1 / psy_rd=1.00:0.00 / mixed_ref=1 / me_range=24 / chroma_me=1 / trellis=2 / 8x8dct=1 / cqm=0 / deadzone=21,11 / fast_pskip=1 / chroma_qp_offset=-2 / threads=12 / lookahead_threads=2 / sliced_threads=0 / nr=0 / decimate=0 / interlaced=0 / bluray_compat=0 / constrained_intra=0 / bframes=8 / b_pyramid=2 / b_adapt=2 / b_bias=0 / direct=3 / weightb=1 / open_gop=0 / weightp=2 / keyint=240 / keyint_min=121 / scenecut=40 / intra_refresh=0 / rc_lookahead=40 / rc=2pass / mbtree=1 / bitrate=500 / ratetol=1.0 / qcomp=0.60 / qpmin=0 / qpmax=69 / qpstep=4 / cplxblur=20.0 / qblur=0.5 / ip_ratio=1.40 / aq=1:1.00
mdhd_Duration : 5001713
Audio
ID : 2
Format : AAC
Format/Info : Advanced Audio Codec
Format profile : LC
Codec ID : 40
Duration : 1h 23mn
Bit rate mode : Variable
Bit rate : 128 Kbps
Channel(s) : 2 channels
Channel positions : Front: L R
Sampling rate : 48.0 KHz
Compression mode : Lossy
Stream size : 76.2 MiB (20%)
Яндекс.Метрика
Рейтинг@Mail.ru