Последний корабль / The Last Ship [S01-02] (2014-2015,фантастика, боевик, триллер, драма) WEB-DLRip | КПК | LostFilm

 

Создавать темы 16-Сен-2015 13:29

-Последний корабль / The Last Ship [S01-02] (2014-2015) WEB-DLRip | КПК-Информация о фильме
Название: Последний корабль
Оригинальное название: The Last Ship-Год выхода: 2014-Жанр: фантастика, боевик, триллер, драма-Режиссер: Майкл Кэтлман, Джек Бендер, Пол Холахан-В ролях: Рона Митра, Эрик Дэйн, Адам Болдуин, Михаэлла МакМанус, Трэвис Ван Винкл, Marissa Neitling, Чарльз Парнелл, Кристина Элмор, Джоко Симс, Джон Пайпер-Фергюсон-О фильме:
Когда глобальная пандемия уничтожает восемьдесят процентов населения планеты, на плечи экипажа одинокого эсминца ложится задача по спасению человечества от вымирания..- -

Список серий:

Сезон 101. Шестая стадия / Phase Six
02. Добро пожаловать в Гуантанамо! / Welcome to Gitmo
03. Счисление координат / Dead Reckoning
04. Последний рывок / We'll Get There
05. Эль Торо / El Toro
06. Карантин / Lockdown
07. S.O.S. / С.О.С.
08. Заходят два моряка в бар... / Two Sailors Walk Into a Bar...
09. Испытания / Trials
10. Нет места лучше дома / No Place Like Home
Сезон 2
01. Нереальный город / Unreal City
02. Битва за корабль (Fight the Ship)
03. Это не слухи (It's Not a Rumor)
04. Милосердие (Solace)
05. Ахиллес (Achilles)
06. Долгое путешествие (Long Day's Journey)
07. Одинокие и бесстрашные (Alone and Unafraid)
08. Убежище (Safe Zone)
09. Нет покоя голове (Uneasy Lies the Head)
10. Огонь по своим (Friendly Fire)
11. Валькирия (Valkyrie)
12. Бей тревогу (Cry Havoc)
13. Более совершенный союз (A More Perfect Union)
Страна: США
Студия: Platinum Dunes
Продолжительность: 23 х ~ 00:45:00
Перевод: Профессиональный (многоголосый, закадровый) [LostFilm]
Файл
Формат: MP4
Качество: WEB-DLRip | КПК
Видео: MPEG-4 AVC (x264), 640x360, ~500 kbps, 23.976 fps
Аудио: AAC LC, 48.0 KHz, 2 ch, 128 Kbps
Субтитры: Нет

Скриншоты

MI

Complete name : E:KinoPosledniy.Korabl.AVC.WEB-DLRip.KPK.LF.GeneralfilmPosledniy.Korabl.S02.2015.AVC.WEB-DLRip.KPK.LF.GeneralfilmPosledniy.Korabl.s02e06.2015.AVC.WEB-DLRip.KPK.LF.Generalfilm.mp4
Format : MPEG-4
Codec ID : M4V
File size : 192 MiB
Duration : 42mn 23s
Overall bit rate mode : Variable
Overall bit rate : 634 Kbps
Writing application : Lavf53.19.0
Video
ID : 1
Format : AVC
Format/Info : Advanced Video Codec
Format profile : [email protected]
Format settings, CABAC : Yes
Format settings, ReFrames : 8 frames
Codec ID : avc1
Codec ID/Info : Advanced Video Coding
Duration : 42mn 23s
Source duration : 13mn 45s
Bit rate : 500 Kbps
Width : 640 pixels
Height : 360 pixels
Display aspect ratio : 16:9
Frame rate mode : Constant
Frame rate : 23.976 fps
Color space : YUV
Chroma subsampling : 4:2:0
Bit depth : 8 bits
Scan type : Progressive
Bits/(Pixel*Frame) : 0.091
Stream size : 152 MiB (79%)
Source stream size : 152 MiB (79%)
Writing library : x264 core 130 r2273 b3065e6
Encoding settings : cabac=1 / ref=8 / deblock=1:-2:-2 / analyse=0x3:0x133 / me=umh / subme=10 / psy=1 / psy_rd=1.00:0.00 / mixed_ref=1 / me_range=24 / chroma_me=1 / trellis=2 / 8x8dct=1 / cqm=0 / deadzone=21,11 / fast_pskip=1 / chroma_qp_offset=-2 / threads=12 / lookahead_threads=2 / sliced_threads=0 / nr=0 / decimate=0 / interlaced=0 / bluray_compat=0 / constrained_intra=0 / bframes=8 / b_pyramid=2 / b_adapt=2 / b_bias=0 / direct=3 / weightb=1 / open_gop=0 / weightp=2 / keyint=240 / keyint_min=121 / scenecut=40 / intra_refresh=0 / rc_lookahead=40 / rc=2pass / mbtree=1 / bitrate=500 / ratetol=1.0 / qcomp=0.60 / qpmin=0 / qpmax=69 / qpstep=4 / cplxblur=20.0 / qblur=0.5 / ip_ratio=1.40 / aq=1:1.00
mdhd_Duration : 2543253
Audio
ID : 2
Format : AAC
Format/Info : Advanced Audio Codec
Format profile : LC
Codec ID : 40
Duration : 42mn 23s
Bit rate mode : Variable
Bit rate : 128 Kbps
Channel(s) : 2 channels
Channel positions : Front: L R
Sampling rate : 48.0 KHz
Compression mode : Lossy
Stream size : 38.7 MiB (20%)
Релиз от:
Яндекс.Метрика
Рейтинг@Mail.ru