Мальчики возвращаются / The Boys Are Back (2009 ,драма) BDRip 1080p | P

 

Создавать темы 16-Сен-2015 13:23

-Мальчики возвращаются / The Boys Are Back (2009) BDRip 1080p -Информация о фильме
Название: Мальчики возвращаются
Оригинальное название: The Boys Are Back-Год выхода: 2009-Жанр: драма-Режиссер: Скотт Хикс-В ролях: Клайв Оуэн, Эмма Бут, Лора Фрейзер, Джордж МакКэй, Николас МакАнульти, Джулия Блейк, Крис Хейвуд, Эрик Томсон, Наташа Литтл, Льюис Фиц-Джералд-О фильме:
Эта история произошла в Южной Австралии. После смерти жены спортивный репортер Джо Варр решает взять на себя полную ответственность за воспитание их шестилетнего сына, вопреки намерениям тещи. В то же время из Англии приезжает его старший сын от первого брака. Теперь Джо придется заново узнавать своих детей и учиться быть отцом, а мальчишкам предстоит принимать важные решения в их жизни, чтобы быть вместе.- -Страна: Австралия, Великобритания
Студия: Southern Light Films, Tiger Aspect Productions
Продолжительность: 01:43:47
Перевод: Профессиональный (многоголосый, закадровый) R5
Рип от StarbirS
Файл
Формат: Matroska
Видео: 1920х816 at 24.000 fps, [email protected], ~9612 kbps avg
Аудио#1: Russian: AC3, 48 kHz, AC3, 3/2 (L,C,R,l,r) + LFE ch, ~448.00 kbps avg |Многоголосый закадровый, R5|
Аудио#2: English: AC3, 48 kHz, AC3, 3/2 (L,C,R,l,r) + LFE ch, ~640.00 kbps avg
Субтитры: Russian, English

MI

Общее
Уникальный идентификатор : 199051449316530439095421222379784276812 (0x95BFEA27E4EF972C81FAE5EFA2F88B4C)
Полное имя : The.Boys.Are.Back.2009.x264.BDRip.1080p.Rus.Eng.mkv
Формат : Matroska
Версия формата : Version 2
Размер файла : 7,76 Гбайт
Продолжительность : 1 ч. 43 м.
Общий поток : 10,7 Мбит/сек
Название фильма : The.Boys.Are.Back.2009.x264.BDRip.1080p.Rus.Eng
Дата кодирования : UTC 2015-09-16 07:29:01
Программа кодирования : mkvmerge v7.9.0 ('Birds') 64bit
Библиотека кодирования : libebml v1.3.1 + libmatroska v1.4.2
Видео
Идентификатор : 1
Формат : AVC
Формат/Информация : Advanced Video Codec
Профиль формата : [email protected]
Параметр CABAC формата : Да
Параметр ReFrames формата : 5 кадров
Идентификатор кодека : V_MPEG4/ISO/AVC
Продолжительность : 1 ч. 43 м.
Битрейт : 9612 Кбит/сек
Ширина : 1920 пикселей
Высота : 816 пикселей
Соотношение сторон : 2,35:1
Режим частоты кадров : Постоянный
Частота кадров : 24,000 кадра/сек
Цветовое пространство : YUV
Субдискретизация насыщенности : 4:2:0
Битовая глубина : 8 бит
Тип развёртки : Прогрессивная
Бит/(Пиксели*Кадры) : 0.256
Размер потока : 6,81 Гбайт (88%)
Заголовок : The.Boys.Are.Back.2009.x264.BDRip.1080p.Rus.Eng.by.StarbirS
Библиотека кодирования : x264 core 146 r2538 121396c
Настройки программы : cabac=1 / ref=5 / deblock=1:-3:-3 / analyse=0x3:0x113 / me=umh / subme=10 / psy=1 / psy_rd=1.00:0.20 / mixed_ref=1 / me_range=48 / chroma_me=1 / trellis=2 / 8x8dct=1 / cqm=0 / deadzone=21,11 / fast_pskip=0 / chroma_qp_offset=-3 / threads=12 / lookahead_threads=2 / sliced_threads=0 / nr=0 / decimate=0 / interlaced=0 / bluray_compat=0 / constrained_intra=0 / bframes=9 / b_pyramid=2 / b_adapt=2 / b_bias=0 / direct=3 / weightb=1 / open_gop=1 / weightp=2 / keyint=240 / keyint_min=24 / scenecut=40 / intra_refresh=0 / rc_lookahead=50 / rc=2pass / mbtree=0 / bitrate=9612 / ratetol=1.0 / qcomp=0.70 / qpmin=0 / qpmax=69 / qpstep=4 / cplxblur=20.0 / qblur=0.5 / vbv_maxrate=50000 / vbv_bufsize=62500 / nal_hrd=none / filler=0 / ip_ratio=1.40 / pb_ratio=1.30 / aq=3:0.70
Язык : English
Default : Да
Forced : Нет
Аудио #1
Идентификатор : 2
Формат : AC-3
Формат/Информация : Audio Coding 3
Расширение режима : CM (complete main)
Параметр Endianness формата : Big
Идентификатор кодека : A_AC3
Продолжительность : 1 ч. 43 м.
Вид битрейта : Постоянный
Битрейт : 448 Кбит/сек
Каналы : 6 каналов
Расположение каналов : Front: L C R, Side: L R, LFE
Частота : 48,0 КГц
Метод сжатия : С потерями
Размер потока : 333 Мбайт (4%)
Заголовок : Професссиональный многоголосый
Язык : Russian
Default : Да
Forced : Нет
Аудио #2
Идентификатор : 3
Формат : AC-3
Формат/Информация : Audio Coding 3
Расширение режима : CM (complete main)
Параметр Endianness формата : Big
Идентификатор кодека : A_AC3
Продолжительность : 1 ч. 43 м.
Вид битрейта : Постоянный
Битрейт : 640 Кбит/сек
Каналы : 6 каналов
Расположение каналов : Front: L C R, Side: L R, LFE
Частота : 48,0 КГц
Метод сжатия : С потерями
Размер потока : 475 Мбайт (6%)
Язык : English
Default : Нет
Forced : Нет
Текст #1
Идентификатор : 4
Формат : UTF-8
Идентификатор кодека : S_TEXT/UTF8
Идентификатор кодека/Информация : UTF-8 Plain Text
Язык : Russian
Default : Нет
Forced : Нет
Текст #2
Идентификатор : 5
Формат : UTF-8
Идентификатор кодека : S_TEXT/UTF8
Идентификатор кодека/Информация : UTF-8 Plain Text
Язык : English
Default : Нет
Forced : Нет
Меню
00:00:00.000 : en:00:00:00.000
00:08:33.375 : en:00:08:33.375
00:15:17.333 : en:00:15:17.333
00:22:57.792 : en:00:22:57.792
00:29:29.125 : en:00:29:29.125
00:36:56.250 : en:00:36:56.250
00:45:25.917 : en:00:45:25.917
00:52:16.250 : en:00:52:16.250
00:59:21.542 : en:00:59:21.542
01:06:10.000 : en:01:06:10.000
01:13:52.875 : en:01:13:52.875
01:21:04.542 : en:01:21:04.542
01:28:07.375 : en:01:28:07.375
01:35:59.750 : en:01:35:59.750
01:40:41.792 : en:01:40:41.792

Скриншоты

Яндекс.Метрика
Рейтинг@Mail.ru