(Classical) Вольфганг Амадей Моцарт / Wolfgang Amadeus Mozart - Best Mozart 100 (6CD) - 2005 [FLAC, image+.cue, lossless]

 

Создавать темы 15-Сен-2015 22:41

-Вольфганг Амадей Моцарт / Wolfgang Amadeus Mozart / Best Mozart 100 (6CD)-- Год издания: 2005
Страна: Austria
Жанр: Classical
Продолжительность: 07:44:48-Лейбл издания: EMI Music
Тип альбома: Compilation
Страна-выпуска диска: EU
Номер по каталогу: 0946 3 30381 2 7
Формат: FLAC
Битрейт аудио: lossless
Тип рипа: image+.cue
Наличие сканов в содержимом раздачи: да
-

Трэклист

CD 1 | 01:16:15


01.Symphony No. 40 in G minor, K. 550, I. Molto allegro(07:43)
02.Clarinet Concerto in A major, K. 622, II. Adagio(08:54)
03.Symphony No. 25 in G minor, K. 183 (K. 173dB), I. Allegro (opening)(04:45)
04.Piano Concerto No. 21 in C major (Elvira Madigan) K. 467, II. Andante(05:19)
05.Symphony No. 35 in D major (Haffner) K. 385, IV. Finale, Presto(04:18)
06.Violin Concerto No. 3 in G major, K. 216, II. Adagio(09:00)
07.Divertimento No. 17 in D major, K. 334 (K.320b), III. Menuetto - Trio(04:27)
08.Symphony No. 41 in C major (Jupiter), K. 551, IV. Allegro(06:10)
09.Piano Concerto No. 23 in A major, K. 488, II. Adagio(07:39)
10.Horn Concerto No. 4 in E flat major, K. 495, III. Rondo: Allegro vivace(03:36)
11.Concerto for flute, harp & orchestra in C major, K. 299 (K. 297c), II. Andantino(08:19)
12.Sinfonia concertante in E flat major, K. 364 (K. 320d), III. Presto(06:10)

лог создания рипа

Exact Audio Copy V0.99 prebeta 5 from 4. May 2009
Отчёт EAC об извлечении, выполненном 29. мая 2010, 0:52
Wolfgang Amadeus Mozart / 100 Best Mozart (CD 1)
Дисковод: _NEC DVD_RW ND-4550A Adapter: 3 ID: 0
Режим чтения                 : Достоверность
Использование точного потока : Да
Отключение кэша аудио        : Да
Использование указателей C2  : Нет
Коррекция смещения при чтении                     : 48
Способность читать области Lead-in и Lead-out     : Нет
Заполнение пропущенных сэмплов тишиной            : Да
Удаление блоков с тишиной в начале и конце        : Нет
При вычислениях CRC использовались нулевые сэмплы : Да
Интерфейс                                         : Установленный внешний ASPI-интерфейс
Выходной формат : Внутренние WAV-операции
Формат сэмплов  : 44.100 Гц; 16 бит; стерео
TOC извлечённого CD
     Трек |   Старт  | Длительность | Начальный сектор | Конечный сектор
    ---------------------------------------------------------------------
       1  |  0:00.00 |    7:42.42   |           0      |      34691
       2  |  7:42.42 |    8:53.73   |       34692      |      74739
       3  | 16:36.40 |    4:44.44   |       74740      |      96083
       4  | 21:21.09 |    5:18.59   |       96084      |     119992
       5  | 26:39.68 |    4:17.03   |      119993      |     139270
       6  | 30:56.71 |    8:59.04   |      139271      |     179699
       7  | 39:56.00 |    4:26.64   |      179700      |     199713
       8  | 44:22.64 |    6:09.21   |      199714      |     227409
       9  | 50:32.10 |    7:38.41   |      227410      |     261800
      10  | 58:10.51 |    3:36.00   |      261801      |     278000
      11  | 61:46.51 |    8:18.31   |      278001      |     315381
      12  | 70:05.07 |    6:09.19   |      315382      |     343075
Характеристики диапазона извлечения и сообщения об ошибках
Выбранный диапазон
     Имя файла D:\rip-flacmusic.ru\Wolfgang Amadeus Mozart - 100 Best Mozart (CD 1).wav
     Пиковый уровень 99.8 %
     Качество диапазона 100.0 %
     CRC копии 0399DE9A
     Копирование... OK
Ошибок не произошло
AccurateRip: сводка
Трек  1  точное извлечение (доверие 21)  [960C5F87]
Трек  2  точное извлечение (доверие 21)  [7516ACA6]
Трек  3  точное извлечение (доверие 21)  [FB32AC81]
Трек  4  точное извлечение (доверие 21)  [04E6E2F2]
Трек  5  точное извлечение (доверие 20)  [7B8C2594]
Трек  6  точное извлечение (доверие 20)  [9C4D2AF4]
Трек  7  точное извлечение (доверие 22)  [835FABFA]
Трек  8  точное извлечение (доверие 21)  [9DFF222F]
Трек  9  точное извлечение (доверие 22)  [089E5A64]
Трек 10  точное извлечение (доверие 22)  [A687C638]
Трек 11  точное извлечение (доверие 20)  [0A9385DE]
Трек 12  точное извлечение (доверие 19)  [91FD6CAE]
Все треки извлечены точно
Конец отчёта

содержание индексной карты *cue

REM GENRE Classical
REM DATE 2005
REM DISCID B911DE0C
REM COMMENT "ExactAudioCopy v0.99pb5"
PERFORMER "Wolfgang Amadeus Mozart"
TITLE "100 Best Mozart (CD 1)"
FILE "Wolfgang Amadeus Mozart - 100 Best Mozart (CD 1).flac" WAVE
  TRACK 01 AUDIO
    TITLE "Symphony No. 40 in G minor, K. 550, I. Molto allegro"
    PERFORMER "Wolfgang Amadeus Mozart"
    INDEX 01 00:00:00
  TRACK 02 AUDIO
    TITLE "Clarinet Concerto in A major, K. 622, II. Adagio"
    PERFORMER "Wolfgang Amadeus Mozart"
    INDEX 00 07:40:07
    INDEX 01 07:42:42
  TRACK 03 AUDIO
    TITLE "Symphony No. 25 in G minor, K. 183 (K. 173dB), I. Allegro (opening)"
    PERFORMER "Wolfgang Amadeus Mozart"
    INDEX 00 16:33:62
    INDEX 01 16:36:40
  TRACK 04 AUDIO
    TITLE "Piano Concerto No. 21 in C major (Elvira Madigan) K. 467, II. Andante"
    PERFORMER "Wolfgang Amadeus Mozart"
    INDEX 00 21:18:02
    INDEX 01 21:21:09
  TRACK 05 AUDIO
    TITLE "Symphony No. 35 in D major (Haffner) K. 385, IV. Finale, Presto"
    PERFORMER "Wolfgang Amadeus Mozart"
    INDEX 00 26:36:57
    INDEX 01 26:39:68
  TRACK 06 AUDIO
    TITLE "Violin Concerto No. 3 in G major, K. 216, II. Adagio"
    PERFORMER "Wolfgang Amadeus Mozart"
    INDEX 00 30:53:56
    INDEX 01 30:56:71
  TRACK 07 AUDIO
    TITLE "Divertimento No. 17 in D major, K. 334 (K.320b), III. Menuetto - Trio"
    PERFORMER "Wolfgang Amadeus Mozart"
    INDEX 00 39:52:68
    INDEX 01 39:56:00
  TRACK 08 AUDIO
    TITLE "Symphony No. 41 in C major (Jupiter), K. 551, IV. Allegro"
    PERFORMER "Wolfgang Amadeus Mozart"
    INDEX 00 44:20:45
    INDEX 01 44:22:64
  TRACK 09 AUDIO
    TITLE "Piano Concerto No. 23 in A major, K. 488, II. Adagio"
    PERFORMER "Wolfgang Amadeus Mozart"
    INDEX 00 50:29:20
    INDEX 01 50:32:10
  TRACK 10 AUDIO
    TITLE "Horn Concerto No. 4 in E flat major, K. 495, III. Rondo: Allegro vivace"
    PERFORMER "Wolfgang Amadeus Mozart"
    INDEX 00 58:08:47
    INDEX 01 58:10:51
  TRACK 11 AUDIO
    TITLE "Concerto for flute, harp & orchestra in C major, K. 299 (K. 297c), II. Andantino"
    PERFORMER "Wolfgang Amadeus Mozart"
    INDEX 00 61:43:23
    INDEX 01 61:46:51
  TRACK 12 AUDIO
    TITLE "Sinfonia concertante in E flat major, K. 364 (K. 320d), III. Presto"
    PERFORMER "Wolfgang Amadeus Mozart"
    INDEX 00 70:02:31
    INDEX 01 70:05:07

CD 2 | 01:19:09


01.Les noces de Figaro K492 / Ouverture(03:59)
02.Les noces de Figaro K492 / 'Non piщ andrai' (Figaro)(03:41)
03.Les noces de Figaro K492 / 'Porgi amor' (Countess)(03:48)
04.Les noces de Figaro K492 / 'Voi che sapete' (Cherubino)(02:57)
05.Les noces de Figaro K492 / 'Hai giа vinta la causa! ... Vedrт, mentr'io sospi...(04:40)
06.Les noces de Figaro K492 / 'Dove sono' (Countess)(04:21)
07.Les noces de Figaro K492 / 'Canzonetta sull'aria ... Che soave zefiretto' (Co...(02:29)
08.Les noces de Figaro K492 / 'Deh vieni, non tardar' (Susanna)(03:27)
09.Cosм fan tutte K588 / 'Bella vita militar' (Chorus)(01:44)
10.Cosм fan tutte K588 / 'Soave sia il vento' (Fiordiligi, Dorabella & Don Alfonso)(03:22)
11.Cosм fan tutte K588 / 'Smanie implacabili' (Dorabella)(02:06)
12.Cosм fan tutte K588 / 'L'intatta fede ... Come scoglio' (Fiordiligi)(05:18)
13.Cosм fan tutte K588 / 'Un'aura amorosa' (Ferrando)(05:18)
14.Don Giovanni K527 / 'Madamila, il catalogo и questo' (Leporello)(05:49)
15.Don Giovanni K527 / 'Lа ci darem la mano' (Don Giovanni & Zerlina)(03:21)
16.Don Giovanni K527 / 'Or sai chi l'onore' (Donna Anna)(02:59)
17.Don Giovanni K527 / 'Dalla sua pace' (Don Ottavio)(05:01)
18.Don Giovanni K527 / 'Finch'han dal vino' (Don Giovanni)(01:17)
19.Don Giovanni K527 / 'Deh, vieni alla finestra' (Don Giovanni)(02:04)
20.Don Giovanni K527 / 'Vedrai, carino' (Zerlino)(03:49)
21.Don Giovanni K527 / 'In quali eccessi, o Numi ... Mi tradм, quell'alma ingrat...(06:03)
22.Don Giovanni K527 / 'Questo и il fin' (ensemble)(01:47)

лог создания рипа

Exact Audio Copy V0.99 prebeta 5 from 4. May 2009
Отчёт EAC об извлечении, выполненном 29. мая 2010, 13:13
Wolfgang Amadeus Mozart / 100 chefs d'oeuvre (CD 2)
Дисковод: _NEC DVD_RW ND-4550A Adapter: 3 ID: 0
Режим чтения                 : Достоверность
Использование точного потока : Да
Отключение кэша аудио        : Да
Использование указателей C2  : Нет
Коррекция смещения при чтении                     : 48
Способность читать области Lead-in и Lead-out     : Нет
Заполнение пропущенных сэмплов тишиной            : Да
Удаление блоков с тишиной в начале и конце        : Нет
При вычислениях CRC использовались нулевые сэмплы : Да
Интерфейс                                         : Установленный внешний ASPI-интерфейс
Выходной формат : Внутренние WAV-операции
Формат сэмплов  : 44.100 Гц; 16 бит; стерео
TOC извлечённого CD
     Трек |   Старт  | Длительность | Начальный сектор | Конечный сектор
    ---------------------------------------------------------------------
       1  |  0:00.00 |    3:58.20   |           0      |      17869
       2  |  3:58.20 |    3:40.14   |       17870      |      34383
       3  |  7:38.34 |    3:47.38   |       34384      |      51446
       4  | 11:25.72 |    2:56.23   |       51447      |      64669
       5  | 14:22.20 |    4:39.44   |       64670      |      85638
       6  | 19:01.64 |    4:20.03   |       85639      |     105141
       7  | 23:21.67 |    2:28.28   |      105142      |     116269
       8  | 25:50.20 |    3:26.69   |      116270      |     131788
       9  | 29:17.14 |    1:43.09   |      131789      |     139522
      10  | 31:00.23 |    3:21.29   |      139523      |     154626
      11  | 34:21.52 |    2:05.71   |      154627      |     164072
      12  | 36:27.48 |    5:17.33   |      164073      |     187880
      13  | 41:45.06 |    5:17.36   |      187881      |     211691
      14  | 47:02.42 |    5:48.10   |      211692      |     237801
      15  | 52:50.52 |    3:20.46   |      237802      |     252847
      16  | 56:11.23 |    2:58.47   |      252848      |     266244
      17  | 59:09.70 |    5:00.65   |      266245      |     288809
      18  | 64:10.60 |    1:16.72   |      288810      |     294581
      19  | 65:27.57 |    2:03.04   |      294582      |     303810
      20  | 67:30.61 |    3:48.21   |      303811      |     320931
      21  | 71:19.07 |    6:02.41   |      320932      |     348122
      22  | 77:21.48 |    1:46.71   |      348123      |     356143
Характеристики диапазона извлечения и сообщения об ошибках
Выбранный диапазон
     Имя файла D:\rip-flacmusic.ru\Wolfgang Amadeus Mozart - 100 chefs d'oeuvre (CD 2).wav
     Пиковый уровень 99.9 %
     Качество диапазона 100.0 %
     CRC копии 8D7F6F1A
     Копирование... OK
Ошибок не произошло
AccurateRip: сводка
Трек  1  точное извлечение (доверие 19)  [19DBB09B]
Трек  2  точное извлечение (доверие 19)  [422EFB56]
Трек  3  точное извлечение (доверие 19)  [8F7DAFAF]
Трек  4  точное извлечение (доверие 19)  [31E40F9C]
Трек  5  точное извлечение (доверие 19)  [7D2B3D22]
Трек  6  точное извлечение (доверие 19)  [4C0F4107]
Трек  7  точное извлечение (доверие 18)  [966272CF]
Трек  8  точное извлечение (доверие 18)  [DD208F64]
Трек  9  точное извлечение (доверие 18)  [654E1CAD]
Трек 10  точное извлечение (доверие 18)  [1645EA59]
Трек 11  точное извлечение (доверие 18)  [FF831313]
Трек 12  точное извлечение (доверие 19)  [27055DEB]
Трек 13  точное извлечение (доверие 19)  [E605F3DF]
Трек 14  точное извлечение (доверие 19)  [DCFE2ECA]
Трек 15  точное извлечение (доверие 19)  [681B0205]
Трек 16  точное извлечение (доверие 19)  [E4B39535]
Трек 17  точное извлечение (доверие 19)  [5DB37F0A]
Трек 18  точное извлечение (доверие 19)  [42D190F1]
Трек 19  точное извлечение (доверие 19)  [EAB77E5F]
Трек 20  точное извлечение (доверие 19)  [6E0FB00A]
Трек 21  точное извлечение (доверие 19)  [8F5599BA]
Трек 22  точное извлечение (доверие 19)  [8E134355]
Все треки извлечены точно
Конец отчёта

содержание индексной карты *cue

REM GENRE Classical
REM DATE 2005
REM DISCID 3B128C16
REM COMMENT "ExactAudioCopy v0.99pb5"
PERFORMER "Wolfgang Amadeus Mozart"
TITLE "100 chefs d'oeuvre (CD 2)"
FILE "Wolfgang Amadeus Mozart - 100 chefs d'oeuvre (CD 2).flac" WAVE
  TRACK 01 AUDIO
    TITLE "Les noces de Figaro K492 / Ouverture"
    PERFORMER "Wolfgang Amadeus Mozart"
    INDEX 01 00:00:00
  TRACK 02 AUDIO
    TITLE "Les noces de Figaro K492 / 'Non piщ andrai' (Figaro)"
    PERFORMER "Wolfgang Amadeus Mozart"
    INDEX 00 03:56:29
    INDEX 01 03:58:20
  TRACK 03 AUDIO
    TITLE "Les noces de Figaro K492 / 'Porgi amor' (Countess)"
    PERFORMER "Wolfgang Amadeus Mozart"
    INDEX 00 07:35:68
    INDEX 01 07:38:34
  TRACK 04 AUDIO
    TITLE "Les noces de Figaro K492 / 'Voi che sapete' (Cherubino)"
    PERFORMER "Wolfgang Amadeus Mozart"
    INDEX 00 11:23:14
    INDEX 01 11:25:72
  TRACK 05 AUDIO
    TITLE "Les noces de Figaro K492 / 'Hai giа vinta la causa! ... Vedrт, mentr'io sospi..."
    PERFORMER "Wolfgang Amadeus Mozart"
    INDEX 00 14:19:22
    INDEX 01 14:22:20
  TRACK 06 AUDIO
    TITLE "Les noces de Figaro K492 / 'Dove sono' (Countess)"
    PERFORMER "Wolfgang Amadeus Mozart"
    INDEX 00 18:59:64
    INDEX 01 19:01:64
  TRACK 07 AUDIO
    TITLE "Les noces de Figaro K492 / 'Canzonetta sull'aria ... Che soave zefiretto' (Co..."
    PERFORMER "Wolfgang Amadeus Mozart"
    INDEX 00 23:19:27
    INDEX 01 23:21:67
  TRACK 08 AUDIO
    TITLE "Les noces de Figaro K492 / 'Deh vieni, non tardar' (Susanna)"
    PERFORMER "Wolfgang Amadeus Mozart"
    INDEX 00 25:47:66
    INDEX 01 25:50:20
  TRACK 09 AUDIO
    TITLE "Cosм fan tutte K588 / 'Bella vita militar' (Chorus)"
    PERFORMER "Wolfgang Amadeus Mozart"
    INDEX 00 29:12:41
    INDEX 01 29:17:14
  TRACK 10 AUDIO
    TITLE "Cosм fan tutte K588 / 'Soave sia il vento' (Fiordiligi, Dorabella & Don Alfonso)"
    PERFORMER "Wolfgang Amadeus Mozart"
    INDEX 00 30:57:22
    INDEX 01 31:00:23
  TRACK 11 AUDIO
    TITLE "Cosм fan tutte K588 / 'Smanie implacabili' (Dorabella)"
    PERFORMER "Wolfgang Amadeus Mozart"
    INDEX 00 34:19:49
    INDEX 01 34:21:52
  TRACK 12 AUDIO
    TITLE "Cosм fan tutte K588 / 'L'intatta fede ... Come scoglio' (Fiordiligi)"
    PERFORMER "Wolfgang Amadeus Mozart"
    INDEX 00 36:24:34
    INDEX 01 36:27:48
  TRACK 13 AUDIO
    TITLE "Cosм fan tutte K588 / 'Un'aura amorosa' (Ferrando)"
    PERFORMER "Wolfgang Amadeus Mozart"
    INDEX 00 41:40:67
    INDEX 01 41:45:06
  TRACK 14 AUDIO
    TITLE "Don Giovanni K527 / 'Madamila, il catalogo и questo' (Leporello)"
    PERFORMER "Wolfgang Amadeus Mozart"
    INDEX 00 46:57:65
    INDEX 01 47:02:42
  TRACK 15 AUDIO
    TITLE "Don Giovanni K527 / 'Lа ci darem la mano' (Don Giovanni & Zerlina)"
    PERFORMER "Wolfgang Amadeus Mozart"
    INDEX 00 52:49:08
    INDEX 01 52:50:52
  TRACK 16 AUDIO
    TITLE "Don Giovanni K527 / 'Or sai chi l'onore' (Donna Anna)"
    PERFORMER "Wolfgang Amadeus Mozart"
    INDEX 00 56:08:45
    INDEX 01 56:11:23
  TRACK 17 AUDIO
    TITLE "Don Giovanni K527 / 'Dalla sua pace' (Don Ottavio)"
    PERFORMER "Wolfgang Amadeus Mozart"
    INDEX 00 59:06:63
    INDEX 01 59:09:70
  TRACK 18 AUDIO
    TITLE "Don Giovanni K527 / 'Finch'han dal vino' (Don Giovanni)"
    PERFORMER "Wolfgang Amadeus Mozart"
    INDEX 00 64:08:07
    INDEX 01 64:10:60
  TRACK 19 AUDIO
    TITLE "Don Giovanni K527 / 'Deh, vieni alla finestra' (Don Giovanni)"
    PERFORMER "Wolfgang Amadeus Mozart"
    INDEX 00 65:24:49
    INDEX 01 65:27:57
  TRACK 20 AUDIO
    TITLE "Don Giovanni K527 / 'Vedrai, carino' (Zerlino)"
    PERFORMER "Wolfgang Amadeus Mozart"
    INDEX 00 67:29:11
    INDEX 01 67:30:61
  TRACK 21 AUDIO
    TITLE "Don Giovanni K527 / 'In quali eccessi, o Numi ... Mi tradм, quell'alma ingrat..."
    PERFORMER "Wolfgang Amadeus Mozart"
    INDEX 00 71:17:10
    INDEX 01 71:19:07
  TRACK 22 AUDIO
    TITLE "Don Giovanni K527 / 'Questo и il fin' (ensemble)"
    PERFORMER "Wolfgang Amadeus Mozart"
    INDEX 00 77:19:52
    INDEX 01 77:21:48

CD 3 | 01:19:43


01.Le directeur de thйatre K486 / Ouverture(03:47)
02.Idomeneo K366 (Varesco) / 'Fuor del mar ho un mar in seno' (Idomeneo)(06:17)
03.Idomeneo K366 (Varesco) / 'Zeffiretti lusinghieri' (Ilia)(04:55)
04.L'enlиvement au sйrail K384 (Stephanie) / 'Konstanze, dich wieder zu sehen, d...(05:01)
05.L'enlиvement au sйrail K384 (Stephanie) / 'Martern aller Arten' (Konstanze)(08:50)
06.L'enlиvement au sйrail K384 (Stephanie) / 'Welche Wonne, welche Lust' (Blonde)(02:33)
07.L'enlиvement au sйrail K384 (Stephanie) / 'Vivat Bacchus' (Osmin & Pedrillo)(02:10)
08.L'enlиvement au sйrail K384 (Stephanie) / 'O, wie will ich triumphieren' (Osmin)(03:32)
09.La flыte enchantйe K620 (Schikaneder) / Overture(06:50)
10.La flыte enchantйe K620 (Schikaneder) / 'Der Vogelfдnger bin ich ja' (Papageno)(02:50)
11.La flыte enchantйe K620 (Schikaneder) / 'Dies Bildnis ist bezaubernd schцn' (...(04:04)
12.La flыte enchantйe K620 (Schikaneder) / 'Bei Mдnnern' (Pamina & Papageno)(03:14)
13.La flыte enchantйe K620 (Schikaneder) / 'Schnelle FьЯe' (Pamina, Papageno & M...(03:14)
14.La flыte enchantйe K620 (Schikaneder) / 'O Isis und Osiris' (Sarastro & Chorus)(02:54)
15.La flыte enchantйe K620 (Schikaneder) / 'Der Hцlle Rache' (Queen of Night)(02:51)
16.La flыte enchantйe K620 (Schikaneder) / 'Ach, ich fьhl's' (Pamina)(04:15)
17.La flыte enchantйe K620 (Schikaneder) / 'Ein Mдdchen oder Weibchen' (Papageno)(04:13)
18.La flыte enchantйe K620 (Schikaneder) / 'Pa-pa-pa-pa-Papagena!' (Papagena & P...(02:39)
19.O du eselhafter Martin / K560(02:46)
20.Bona nox, bist a rechta Ox / K561(01:23)
21.Essen und trinken / K234(01:38)

лог создания рипа

Exact Audio Copy V0.99 prebeta 5 from 4. May 2009
Отчёт EAC об извлечении, выполненном 29. мая 2010, 13:24
Wolfgang Amadeus Mozart / 100 chefs d'oeuvre (CD 3)
Дисковод: _NEC DVD_RW ND-4550A Adapter: 3 ID: 0
Режим чтения                 : Достоверность
Использование точного потока : Да
Отключение кэша аудио        : Да
Использование указателей C2  : Нет
Коррекция смещения при чтении                     : 48
Способность читать области Lead-in и Lead-out     : Нет
Заполнение пропущенных сэмплов тишиной            : Да
Удаление блоков с тишиной в начале и конце        : Нет
При вычислениях CRC использовались нулевые сэмплы : Да
Интерфейс                                         : Установленный внешний ASPI-интерфейс
Выходной формат : Внутренние WAV-операции
Формат сэмплов  : 44.100 Гц; 16 бит; стерео
TOC извлечённого CD
     Трек |   Старт  | Длительность | Начальный сектор | Конечный сектор
    ---------------------------------------------------------------------
       1  |  0:00.00 |    3:46.17   |           0      |      16966
       2  |  3:46.17 |    6:16.33   |       16967      |      45199
       3  | 10:02.50 |    4:54.13   |       45200      |      67262
       4  | 14:56.63 |    5:00.56   |       67263      |      89818
       5  | 19:57.44 |    8:49.24   |       89819      |     129517
       6  | 28:46.68 |    2:32.16   |      129518      |     140933
       7  | 31:19.09 |    2:09.64   |      140934      |     150672
       8  | 33:28.73 |    3:31.51   |      150673      |     166548
       9  | 37:00.49 |    6:49.51   |      166549      |     197274
      10  | 43:50.25 |    2:49.39   |      197275      |     209988
      11  | 46:39.64 |    4:03.28   |      209989      |     228241
      12  | 50:43.17 |    3:13.02   |      228242      |     242718
      13  | 53:56.19 |    3:13.29   |      242719      |     257222
      14  | 57:09.48 |    2:53.48   |      257223      |     270245
      15  | 60:03.21 |    2:50.19   |      270246      |     283014
      16  | 62:53.40 |    4:14.06   |      283015      |     302070
      17  | 67:07.46 |    4:12.36   |      302071      |     321006
      18  | 71:20.07 |    2:38.23   |      321007      |     332879
      19  | 73:58.30 |    2:45.39   |      332880      |     345293
      20  | 76:43.69 |    1:22.04   |      345294      |     351447
      21  | 78:05.73 |    1:37.02   |      351448      |     358724
Характеристики диапазона извлечения и сообщения об ошибках
Выбранный диапазон
     Имя файла D:\rip-flacmusic.ru\Wolfgang Amadeus Mozart - 100 chefs d'oeuvre (CD 3).wav
     Пиковый уровень 98.9 %
     Качество диапазона 100.0 %
     CRC копии 292D7D1B
     Копирование... OK
Ошибок не произошло
AccurateRip: сводка
Трек  1  точное извлечение (доверие 18)  [4A3DEF81]
Трек  2  точное извлечение (доверие 18)  [CB36421B]
Трек  3  точное извлечение (доверие 18)  [72D04817]
Трек  4  точное извлечение (доверие 18)  [40809B9B]
Трек  5  точное извлечение (доверие 18)  [ABE10889]
Трек  6  точное извлечение (доверие 18)  [5E4696E6]
Трек  7  точное извлечение (доверие 18)  [F42E5CE7]
Трек  8  точное извлечение (доверие 18)  [3894CF8F]
Трек  9  точное извлечение (доверие 18)  [DB23A5D8]
Трек 10  точное извлечение (доверие 18)  [45C2E040]
Трек 11  точное извлечение (доверие 18)  [50EC17BC]
Трек 12  точное извлечение (доверие 18)  [56E2F4B2]
Трек 13  точное извлечение (доверие 18)  [11F4540A]
Трек 14  точное извлечение (доверие 18)  [4404427A]
Трек 15  точное извлечение (доверие 18)  [1769C634]
Трек 16  точное извлечение (доверие 18)  [E3E00172]
Трек 17  точное извлечение (доверие 17)  [56AD9089]
Трек 18  точное извлечение (доверие 18)  [4AE2F372]
Трек 19  точное извлечение (доверие 17)  [EC91A485]
Трек 20  точное извлечение (доверие 17)  [14D20101]
Трек 21  точное извлечение (доверие 17)  [1F3CCDF1]
Все треки извлечены точно
Конец отчёта

содержание индексной карты *cue

REM GENRE Classical
REM DATE 2005
REM DISCID 2B12AF15
REM COMMENT "ExactAudioCopy v0.99pb5"
PERFORMER "Wolfgang Amadeus Mozart"
TITLE "100 chefs d'oeuvre (CD 3)"
FILE "Wolfgang Amadeus Mozart - 100 chefs d'oeuvre (CD 3).flac" WAVE
  TRACK 01 AUDIO
    TITLE "Le directeur de thйatre K486 / Ouverture"
    PERFORMER "Wolfgang Amadeus Mozart"
    INDEX 01 00:00:00
  TRACK 02 AUDIO
    TITLE "Idomeneo K366 (Varesco) / 'Fuor del mar ho un mar in seno' (Idomeneo)"
    PERFORMER "Wolfgang Amadeus Mozart"
    INDEX 00 03:43:46
    INDEX 01 03:46:17
  TRACK 03 AUDIO
    TITLE "Idomeneo K366 (Varesco) / 'Zeffiretti lusinghieri' (Ilia)"
    PERFORMER "Wolfgang Amadeus Mozart"
    INDEX 00 10:01:19
    INDEX 01 10:02:50
  TRACK 04 AUDIO
    TITLE "L'enlиvement au sйrail K384 (Stephanie) / 'Konstanze, dich wieder zu sehen, d..."
    PERFORMER "Wolfgang Amadeus Mozart"
    INDEX 00 14:53:65
    INDEX 01 14:56:63
  TRACK 05 AUDIO
    TITLE "L'enlиvement au sйrail K384 (Stephanie) / 'Martern aller Arten' (Konstanze)"
    PERFORMER "Wolfgang Amadeus Mozart"
    INDEX 00 19:55:39
    INDEX 01 19:57:44
  TRACK 06 AUDIO
    TITLE "L'enlиvement au sйrail K384 (Stephanie) / 'Welche Wonne, welche Lust' (Blonde)"
    PERFORMER "Wolfgang Amadeus Mozart"
    INDEX 00 28:45:24
    INDEX 01 28:46:68
  TRACK 07 AUDIO
    TITLE "L'enlиvement au sйrail K384 (Stephanie) / 'Vivat Bacchus' (Osmin & Pedrillo)"
    PERFORMER "Wolfgang Amadeus Mozart"
    INDEX 00 31:16:73
    INDEX 01 31:19:09
  TRACK 08 AUDIO
    TITLE "L'enlиvement au sйrail K384 (Stephanie) / 'O, wie will ich triumphieren' (Osmin)"
    PERFORMER "Wolfgang Amadeus Mozart"
    INDEX 00 33:26:73
    INDEX 01 33:28:73
  TRACK 09 AUDIO
    TITLE "La flыte enchantйe K620 (Schikaneder) / Overture"
    PERFORMER "Wolfgang Amadeus Mozart"
    INDEX 00 36:55:55
    INDEX 01 37:00:49
  TRACK 10 AUDIO
    TITLE "La flыte enchantйe K620 (Schikaneder) / 'Der Vogelfдnger bin ich ja' (Papageno)"
    PERFORMER "Wolfgang Amadeus Mozart"
    INDEX 00 43:48:32
    INDEX 01 43:50:25
  TRACK 11 AUDIO
    TITLE "La flыte enchantйe K620 (Schikaneder) / 'Dies Bildnis ist bezaubernd schцn' (..."
    PERFORMER "Wolfgang Amadeus Mozart"
    INDEX 00 46:38:01
    INDEX 01 46:39:64
  TRACK 12 AUDIO
    TITLE "La flыte enchantйe K620 (Schikaneder) / 'Bei Mдnnern' (Pamina & Papageno)"
    PERFORMER "Wolfgang Amadeus Mozart"
    INDEX 00 50:41:24
    INDEX 01 50:43:17
  TRACK 13 AUDIO
    TITLE "La flыte enchantйe K620 (Schikaneder) / 'Schnelle FьЯe' (Pamina, Papageno & M..."
    PERFORMER "Wolfgang Amadeus Mozart"
    INDEX 00 53:54:53
    INDEX 01 53:56:19
  TRACK 14 AUDIO
    TITLE "La flыte enchantйe K620 (Schikaneder) / 'O Isis und Osiris' (Sarastro & Chorus)"
    PERFORMER "Wolfgang Amadeus Mozart"
    INDEX 00 57:07:48
    INDEX 01 57:09:48
  TRACK 15 AUDIO
    TITLE "La flыte enchantйe K620 (Schikaneder) / 'Der Hцlle Rache' (Queen of Night)"
    PERFORMER "Wolfgang Amadeus Mozart"
    INDEX 00 60:01:33
    INDEX 01 60:03:21
  TRACK 16 AUDIO
    TITLE "La flыte enchantйe K620 (Schikaneder) / 'Ach, ich fьhl's' (Pamina)"
    PERFORMER "Wolfgang Amadeus Mozart"
    INDEX 00 62:51:37
    INDEX 01 62:53:40
  TRACK 17 AUDIO
    TITLE "La flыte enchantйe K620 (Schikaneder) / 'Ein Mдdchen oder Weibchen' (Papageno)"
    PERFORMER "Wolfgang Amadeus Mozart"
    INDEX 00 67:05:05
    INDEX 01 67:07:46
  TRACK 18 AUDIO
    TITLE "La flыte enchantйe K620 (Schikaneder) / 'Pa-pa-pa-pa-Papagena!' (Papagena & P..."
    PERFORMER "Wolfgang Amadeus Mozart"
    INDEX 00 71:18:32
    INDEX 01 71:20:07
  TRACK 19 AUDIO
    TITLE "O du eselhafter Martin  / K560"
    PERFORMER "Wolfgang Amadeus Mozart"
    INDEX 00 73:55:66
    INDEX 01 73:58:30
  TRACK 20 AUDIO
    TITLE "Bona nox, bist a rechta Ox  / K561"
    PERFORMER "Wolfgang Amadeus Mozart"
    INDEX 00 76:42:56
    INDEX 01 76:43:69
  TRACK 21 AUDIO
    TITLE "Essen und trinken  / K234"
    PERFORMER "Wolfgang Amadeus Mozart"
    INDEX 00 78:04:66
    INDEX 01 78:05:73

CD 4 | 01:17:23


01.Sonata for Piano No. 11 in A major, K. 300i/331 'Alla Turca': III. Rondo alla...(03:29)
02.Serenade No. 10 for 12 Winds & Contrabass in B-flat major, K. 370a/361 'Gran ...(05:28)
03.La tartine de beurre(01:16)
04.Sonata for Violin & Piano No. 28 in E minor, K. 300c/304: I. Allegro(09:03)
05.Variations for Piano on 'Ah! Vous dirais-je maman' in C major, KV 265(09:36)
06.Serenade No. 13 for Strings in G major, K. 525 'Eine kleine Nachtmusik': I. A...(05:54)
07.Serenade No. 13 for Strings in G major, K. 525 'Eine kleine Nachtmusik': II. ...(05:45)
08.Serenade No. 13 for Strings in G major, K. 525 'Eine kleine Nachtmusik': III....(01:58)
09.Serenade No. 13 for Strings in G major, K. 525 'Eine kleine Nachtmusik': IV. ...(03:05)
10.3 German Dances for Orchestra in C major, K. 605 'Die Schlittenfahrt': III. G...(03:10)
11.Fantasia for Piano in D minor, K. 385g/397 (fragment)(05:39)
12.Divertimento for Violin, Viola & Cello in E-flat major, K. 563: VI. Allegro(06:35)
13.Masonic Funeral Music for Orchestra in C minor, K. 479a/477(05:57)
14.Sonata for Piano No. 16 in C major, K. 545 'Sonata semplice': I. Allegro(03:09)
15.Sonata for Piano No. 16 in C major, K. 545 'Sonata semplice': II. Andante(05:45)
16.Sonata for Piano No. 16 in C major, K. 545 'Sonata semplice': III. Rondo. All...(01:42)

лог создания рипа

Exact Audio Copy V0.99 prebeta 5 from 4. May 2009
Отчёт EAC об извлечении, выполненном 29. мая 2010, 0:17
Klassiek / Mozart - Best Mozart 100 - CD4
Дисковод: _NEC DVD_RW ND-4550A Adapter: 3 ID: 0
Режим чтения                 : Достоверность
Использование точного потока : Да
Отключение кэша аудио        : Да
Использование указателей C2  : Нет
Коррекция смещения при чтении                     : 48
Способность читать области Lead-in и Lead-out     : Нет
Заполнение пропущенных сэмплов тишиной            : Да
Удаление блоков с тишиной в начале и конце        : Нет
При вычислениях CRC использовались нулевые сэмплы : Да
Интерфейс                                         : Установленный внешний ASPI-интерфейс
Выходной формат : Внутренние WAV-операции
Формат сэмплов  : 44.100 Гц; 16 бит; стерео
TOC извлечённого CD
     Трек |   Старт  | Длительность | Начальный сектор | Конечный сектор
    ---------------------------------------------------------------------
       1  |  0:00.00 |    3:28.58   |           0      |      15657
       2  |  3:28.58 |    5:27.23   |       15658      |      40205
       3  |  8:56.06 |    1:15.10   |       40206      |      45840
       4  | 10:11.16 |    9:02.43   |       45841      |      86533
       5  | 19:13.59 |    9:35.62   |       86534      |     129720
       6  | 28:49.46 |    5:53.66   |      129721      |     156261
       7  | 34:43.37 |    5:44.47   |      156262      |     182108
       8  | 40:28.09 |    1:57.65   |      182109      |     190948
       9  | 42:25.74 |    3:04.24   |      190949      |     204772
      10  | 45:30.23 |    3:09.20   |      204773      |     218967
      11  | 48:39.43 |    5:38.14   |      218968      |     244331
      12  | 54:17.57 |    6:34.49   |      244332      |     273930
      13  | 60:52.31 |    5:56.23   |      273931      |     300653
      14  | 66:48.54 |    3:08.17   |      300654      |     314770
      15  | 69:56.71 |    5:44.67   |      314771      |     340637
      16  | 75:41.63 |    1:41.08   |      340638      |     348220
Характеристики диапазона извлечения и сообщения об ошибках
Выбранный диапазон
     Имя файла D:\rip-flacmusic.ru\Klassiek - Mozart - Best Mozart 100 - CD4.wav
     Пиковый уровень 85.0 %
     Качество диапазона 99.9 %
     CRC копии 52673D2E
     Копирование... OK
Ошибок не произошло
AccurateRip: сводка
Трек  1  точное извлечение (доверие 17)  [7644AB4D]
Трек  2  точное извлечение (доверие 17)  [C85108BB]
Трек  3  точное извлечение (доверие 17)  [F04582F0]
Трек  4  точное извлечение (доверие 17)  [21AE6CA3]
Трек  5  точное извлечение (доверие 17)  [E1A2A5EE]
Трек  6  точное извлечение (доверие 17)  [FAD4CC9B]
Трек  7  точное извлечение (доверие 17)  [FD69347E]
Трек  8  точное извлечение (доверие 17)  [2D55A779]
Трек  9  точное извлечение (доверие 17)  [BA615691]
Трек 10  точное извлечение (доверие 17)  [118068A7]
Трек 11  точное извлечение (доверие 17)  [DAC54FDB]
Трек 12  точное извлечение (доверие 16)  [AACCA39C]
Трек 13  точное извлечение (доверие 17)  [20E860E7]
Трек 14  точное извлечение (доверие 17)  [17DC6FEC]
Трек 15  точное извлечение (доверие 17)  [3D9B2D0E]
Трек 16  точное извлечение (доверие 17)  [4D133AF1]
Все треки извлечены точно
Конец отчёта

содержание индексной карты *cue

REM GENRE Classical
REM DATE 2005
REM DISCID CD122210
REM COMMENT "ExactAudioCopy v0.99pb5"
PERFORMER "Klassiek"
TITLE "Mozart - Best Mozart 100 - CD4"
FILE "Klassiek - Mozart - Best Mozart 100 - CD4.flac" WAVE
  TRACK 01 AUDIO
    TITLE "Sonata for Piano No. 11 in A major, K. 300i/331 'Alla Turca': III. Rondo alla..."
    PERFORMER "Klassiek"
    INDEX 01 00:00:00
  TRACK 02 AUDIO
    TITLE "Serenade No. 10 for 12 Winds & Contrabass in B-flat major, K. 370a/361 'Gran ..."
    PERFORMER "Klassiek"
    INDEX 00 03:26:31
    INDEX 01 03:28:58
  TRACK 03 AUDIO
    TITLE "La tartine de beurre"
    PERFORMER "Klassiek"
    INDEX 00 08:53:13
    INDEX 01 08:56:06
  TRACK 04 AUDIO
    TITLE "Sonata for Violin & Piano No. 28 in E minor, K. 300c/304: I. Allegro"
    PERFORMER "Klassiek"
    INDEX 00 10:08:33
    INDEX 01 10:11:16
  TRACK 05 AUDIO
    TITLE "Variations for Piano on 'Ah! Vous dirais-je maman' in C major, KV 265"
    PERFORMER "Klassiek"
    INDEX 00 19:11:66
    INDEX 01 19:13:59
  TRACK 06 AUDIO
    TITLE "Serenade No. 13 for Strings in G major, K. 525 'Eine kleine Nachtmusik': I. A..."
    PERFORMER "Klassiek"
    INDEX 00 28:47:25
    INDEX 01 28:49:46
  TRACK 07 AUDIO
    TITLE "Serenade No. 13 for Strings in G major, K. 525 'Eine kleine Nachtmusik': II. ..."
    PERFORMER "Klassiek"
    INDEX 01 34:43:37
  TRACK 08 AUDIO
    TITLE "Serenade No. 13 for Strings in G major, K. 525 'Eine kleine Nachtmusik': III...."
    PERFORMER "Klassiek"
    INDEX 01 40:28:09
  TRACK 09 AUDIO
    TITLE "Serenade No. 13 for Strings in G major, K. 525 'Eine kleine Nachtmusik': IV. ..."
    PERFORMER "Klassiek"
    INDEX 01 42:25:74
  TRACK 10 AUDIO
    TITLE "3 German Dances for Orchestra in C major, K. 605 'Die Schlittenfahrt': III. G..."
    PERFORMER "Klassiek"
    INDEX 00 45:29:09
    INDEX 01 45:30:23
  TRACK 11 AUDIO
    TITLE "Fantasia for Piano in D minor, K. 385g/397 (fragment)"
    PERFORMER "Klassiek"
    INDEX 00 48:36:15
    INDEX 01 48:39:43
  TRACK 12 AUDIO
    TITLE "Divertimento for Violin, Viola & Cello in E-flat major, K. 563: VI. Allegro"
    PERFORMER "Klassiek"
    INDEX 00 54:15:54
    INDEX 01 54:17:57
  TRACK 13 AUDIO
    TITLE "Masonic Funeral Music for Orchestra in C minor, K. 479a/477"
    PERFORMER "Klassiek"
    INDEX 00 60:49:52
    INDEX 01 60:52:31
  TRACK 14 AUDIO
    TITLE "Sonata for Piano No. 16 in C major, K. 545 'Sonata semplice': I. Allegro"
    PERFORMER "Klassiek"
    INDEX 00 66:46:73
    INDEX 01 66:48:54
  TRACK 15 AUDIO
    TITLE "Sonata for Piano No. 16 in C major, K. 545 'Sonata semplice': II. Andante"
    PERFORMER "Klassiek"
    INDEX 01 69:56:71
  TRACK 16 AUDIO
    TITLE "Sonata for Piano No. 16 in C major, K. 545 'Sonata semplice': III. Rondo. All..."
    PERFORMER "Klassiek"
    INDEX 01 75:41:63

CD 5 | 01:19:46


01.Sonata for two pianos in D K.448 (I: Allegro con spirito)(08:03)
02.Clarinet Quintet in A K.581 (II: Larghetto)(06:31)
03.Serenade for winds in C minor K388 (III: Menuetto in canone)(04:12)
04.Flute Quartet un G K285a (I: Andante)(06:52)
05.Quintet for piano, oboe, clarinet, horn and bassoon in E flat K452 (III: Rond...(05:55)
06.Duo for violin and viola in G K423 (II: Adagio)(04:15)
07.Piano Sonata in A minor K310 (III: Presto)(03:01)
08.String Quartet in B flat K465 'Hunt' (IV: Allegro assai)(06:34)
09.Oboe Quartet in F K370 (III: Rondo: Allegro)(04:28)
10.Piano Converto No.26 in D K537 'Coronation' (II: Adagio)(07:01)
11.Violin Concerto No.5 in A K219 (III: Rondeau: Tempo di Minuetto)(08:36)
12.Menuet in D K355(02:53)
13.Serenade for wind instruments in E flat K375 (V: Finale : Allegro)(03:30)
14.Ein musukalischer SpaB in F K522 (I: Allegro)(03:30)
15.Ein musukalischer SpaB in F K522 (IV: Presto)(04:34)

лог создания рипа

Exact Audio Copy V0.99 prebeta 5 from 4. May 2009
Отчёт EAC об извлечении, выполненном 30. мая 2010, 0:29
Wolfgang Amadeus Mozart / Best Mozart 100 (CD 5)
Дисковод: _NEC DVD_RW ND-4550A Adapter: 3 ID: 0
Режим чтения                 : Достоверность
Использование точного потока : Да
Отключение кэша аудио        : Да
Использование указателей C2  : Нет
Коррекция смещения при чтении                     : 48
Способность читать области Lead-in и Lead-out     : Нет
Заполнение пропущенных сэмплов тишиной            : Да
Удаление блоков с тишиной в начале и конце        : Нет
При вычислениях CRC использовались нулевые сэмплы : Да
Интерфейс                                         : Установленный внешний ASPI-интерфейс
Выходной формат : Внутренние WAV-операции
Формат сэмплов  : 44.100 Гц; 16 бит; стерео
TOC извлечённого CD
     Трек |   Старт  | Длительность | Начальный сектор | Конечный сектор
    ---------------------------------------------------------------------
       1  |  0:00.00 |    8:02.07   |           0      |      36156
       2  |  8:02.07 |    6:30.11   |       36157      |      65417
       3  | 14:32.18 |    4:11.29   |       65418      |      84271
       4  | 18:43.47 |    6:51.09   |       84272      |     115105
       5  | 25:34.56 |    5:54.46   |      115106      |     141701
       6  | 31:29.27 |    4:14.45   |      141702      |     160796
       7  | 35:43.72 |    3:00.42   |      160797      |     174338
       8  | 38:44.39 |    6:33.18   |      174339      |     203831
       9  | 45:17.57 |    4:27.19   |      203832      |     223875
      10  | 49:45.01 |    7:00.04   |      223876      |     255379
      11  | 56:45.05 |    8:35.29   |      255380      |     294033
      12  | 65:20.34 |    2:52.41   |      294034      |     306974
      13  | 68:13.00 |    3:29.12   |      306975      |     322661
      14  | 71:42.12 |    3:29.62   |      322662      |     338398
      15  | 75:11.74 |    4:33.73   |      338399      |     358946
Характеристики диапазона извлечения и сообщения об ошибках
Выбранный диапазон
     Имя файла D:\rip-flacmusic.ru\Wolfgang Amadeus Mozart - Best Mozart 100 (CD 5).wav
     Пиковый уровень 99.5 %
     Качество диапазона 100.0 %
     CRC копии 27623307
     Копирование... OK
Ошибок не произошло
AccurateRip: сводка
Трек  1  точное извлечение (доверие 18)  [48AC5AA1]
Трек  2  точное извлечение (доверие 18)  [A182DB6E]
Трек  3  точное извлечение (доверие 18)  [AEF133D7]
Трек  4  точное извлечение (доверие 18)  [89426A5A]
Трек  5  точное извлечение (доверие 18)  [646DA965]
Трек  6  точное извлечение (доверие 18)  [C72CC707]
Трек  7  точное извлечение (доверие 18)  [0B9400A1]
Трек  8  точное извлечение (доверие 18)  [7B152C25]
Трек  9  точное извлечение (доверие 18)  [62ACA662]
Трек 10  точное извлечение (доверие 17)  [F59F6456]
Трек 11  точное извлечение (доверие 16)  [81512A06]
Трек 12  точное извлечение (доверие 17)  [916CB6CD]
Трек 13  точное извлечение (доверие 17)  [27A4D28E]
Трек 14  точное извлечение (доверие 17)  [10C27D81]
Трек 15  точное извлечение (доверие 17)  [7B62A474]
Все треки извлечены точно
Конец отчёта

содержание индексной карты *cue

REM GENRE Classical
REM DATE 2005
REM DISCID DE12B10F
REM COMMENT "ExactAudioCopy v0.99pb5"
PERFORMER "Wolfgang Amadeus Mozart"
TITLE "Best Mozart 100 (CD 5)"
FILE "Wolfgang Amadeus Mozart - Best Mozart 100 (CD 5).flac" WAVE
  TRACK 01 AUDIO
    TITLE "Sonata for two pianos in D K.448 (I: Allegro con spirito)"
    PERFORMER "Wolfgang Amadeus Mozart"
    INDEX 01 00:00:00
  TRACK 02 AUDIO
    TITLE "Clarinet Quintet in A K.581 (II: Larghetto)"
    PERFORMER "Wolfgang Amadeus Mozart"
    INDEX 00 07:59:61
    INDEX 01 08:02:07
  TRACK 03 AUDIO
    TITLE "Serenade for winds in C minor K388 (III: Menuetto in canone)"
    PERFORMER "Wolfgang Amadeus Mozart"
    INDEX 00 14:29:26
    INDEX 01 14:32:18
  TRACK 04 AUDIO
    TITLE "Flute Quartet un G K285a (I: Andante)"
    PERFORMER "Wolfgang Amadeus Mozart"
    INDEX 00 18:41:64
    INDEX 01 18:43:47
  TRACK 05 AUDIO
    TITLE "Quintet for piano, oboe, clarinet, horn and bassoon in E flat K452 (III: Rond..."
    PERFORMER "Wolfgang Amadeus Mozart"
    INDEX 00 25:33:59
    INDEX 01 25:34:56
  TRACK 06 AUDIO
    TITLE "Duo for violin and viola in G K423 (II: Adagio)"
    PERFORMER "Wolfgang Amadeus Mozart"
    INDEX 00 31:28:06
    INDEX 01 31:29:27
  TRACK 07 AUDIO
    TITLE "Piano Sonata in A minor K310 (III: Presto)"
    PERFORMER "Wolfgang Amadeus Mozart"
    INDEX 00 35:41:48
    INDEX 01 35:43:72
  TRACK 08 AUDIO
    TITLE "String Quartet in B flat K465 'Hunt' (IV: Allegro assai)"
    PERFORMER "Wolfgang Amadeus Mozart"
    INDEX 00 38:41:38
    INDEX 01 38:44:39
  TRACK 09 AUDIO
    TITLE "Oboe Quartet in F K370 (III: Rondo: Allegro)"
    PERFORMER "Wolfgang Amadeus Mozart"
    INDEX 00 45:14:70
    INDEX 01 45:17:57
  TRACK 10 AUDIO
    TITLE "Piano Converto No.26 in D K537 'Coronation' (II: Adagio)"
    PERFORMER "Wolfgang Amadeus Mozart"
    INDEX 00 49:43:16
    INDEX 01 49:45:01
  TRACK 11 AUDIO
    TITLE "Violin Concerto No.5 in A K219 (III: Rondeau: Tempo di Minuetto)"
    PERFORMER "Wolfgang Amadeus Mozart"
    INDEX 00 56:42:71
    INDEX 01 56:45:05
  TRACK 12 AUDIO
    TITLE "Menuet in D K355"
    PERFORMER "Wolfgang Amadeus Mozart"
    INDEX 00 65:18:57
    INDEX 01 65:20:34
  TRACK 13 AUDIO
    TITLE "Serenade for wind instruments in E flat K375 (V: Finale : Allegro)"
    PERFORMER "Wolfgang Amadeus Mozart"
    INDEX 00 68:10:67
    INDEX 01 68:13:00
  TRACK 14 AUDIO
    TITLE "Ein musukalischer SpaB in F K522 (I: Allegro)"
    PERFORMER "Wolfgang Amadeus Mozart"
    INDEX 00 71:39:56
    INDEX 01 71:42:12
  TRACK 15 AUDIO
    TITLE "Ein musukalischer SpaB in F K522 (IV: Presto)"
    PERFORMER "Wolfgang Amadeus Mozart"
    INDEX 00 75:10:33
    INDEX 01 75:11:74

CD 6 | 01:12:34


01.Requiem in D minor K626 (ed. Beyer) - Introit: Requiem aeternam(04:28)
02.Requiem in D minor K626 (ed. Beyer) - Kyrie(02:35)
03.Requiem in D minor K626 (ed. Beyer) - Lacrimosa(03:00)
04.Vesperae solennes de confessore K339(05:30)
05.Ave verum corpus K618(03:27)
06.Litanae lauretanae K195(06:25)
07.Mass in C minor K427(08:30)
08.Mass in C K317 'Coronation'(03:17)
09.Exsultate, jubilate K165(15:41)
10.Regina coeli K127(04:07)
11.Sancta Maria, mater Dei K273(04:07)
12.Betracht dies Herz K42(06:15)
13.An die Freundschaft K125h(02:12)
14.Die Zauberflцte(03:06)

лог создания рипа

Exact Audio Copy V0.99 prebeta 5 from 4. May 2009
Отчёт EAC об извлечении, выполненном 30. мая 2010, 0:40
Wolfgang Amadeus Mozart / Best Mozart 100 (CD 6)
Дисковод: _NEC DVD_RW ND-4550A Adapter: 3 ID: 0
Режим чтения                 : Достоверность
Использование точного потока : Да
Отключение кэша аудио        : Да
Использование указателей C2  : Нет
Коррекция смещения при чтении                     : 48
Способность читать области Lead-in и Lead-out     : Нет
Заполнение пропущенных сэмплов тишиной            : Да
Удаление блоков с тишиной в начале и конце        : Нет
При вычислениях CRC использовались нулевые сэмплы : Да
Интерфейс                                         : Установленный внешний ASPI-интерфейс
Выходной формат : Внутренние WAV-операции
Формат сэмплов  : 44.100 Гц; 16 бит; стерео
TOC извлечённого CD
     Трек |   Старт  | Длительность | Начальный сектор | Конечный сектор
    ---------------------------------------------------------------------
       1  |  0:00.00 |    4:27.71   |           0      |      20095
       2  |  4:27.71 |    2:34.28   |       20096      |      31673
       3  |  7:02.24 |    2:59.49   |       31674      |      45147
       4  | 10:01.73 |    5:29.22   |       45148      |      69844
       5  | 15:31.20 |    3:26.50   |       69845      |      85344
       6  | 18:57.70 |    6:24.39   |       85345      |     114183
       7  | 25:22.34 |    8:29.20   |      114184      |     152378
       8  | 33:51.54 |    3:16.56   |      152379      |     167134
       9  | 37:08.35 |   15:40.56   |      167135      |     237690
      10  | 52:49.16 |    4:06.07   |      237691      |     256147
      11  | 56:55.23 |    4:06.65   |      256148      |     274662
      12  | 61:02.13 |    6:14.60   |      274663      |     302772
      13  | 67:16.73 |    2:11.13   |      302773      |     312610
      14  | 69:28.11 |    3:05.02   |      312611      |     326487
Характеристики диапазона извлечения и сообщения об ошибках
Выбранный диапазон
     Имя файла D:\rip-flacmusic.ru\Wolfgang Amadeus Mozart - Best Mozart 100 (CD 6).wav
     Пиковый уровень 99.6 %
     Качество диапазона 100.0 %
     CRC копии 4DA35091
     Копирование... OK
Ошибок не произошло
AccurateRip: сводка
Трек  1  точное извлечение (доверие 16)  [4607D931]
Трек  2  точное извлечение (доверие 16)  [2D9949CA]
Трек  3  точное извлечение (доверие 16)  [D3AC0F00]
Трек  4  точное извлечение (доверие 16)  [9CF7CBC0]
Трек  5  точное извлечение (доверие 16)  [DE3920BA]
Трек  6  точное извлечение (доверие 16)  [0FBE8A4D]
Трек  7  точное извлечение (доверие 16)  [7CF57A51]
Трек  8  точное извлечение (доверие 16)  [831CA2BB]
Трек  9  точное извлечение (доверие 16)  [E89D6796]
Трек 10  точное извлечение (доверие 16)  [740DB5D6]
Трек 11  точное извлечение (доверие 16)  [AA20AC35]
Трек 12  точное извлечение (доверие 16)  [59FEC662]
Трек 13  точное извлечение (доверие 16)  [BCF5C965]
Трек 14  точное извлечение (доверие 15)  [80CEEE3F]
Все треки извлечены точно
Конец отчёта

содержание индексной карты *cue

REM GENRE Classical
REM DATE 2005
REM DISCID A711010E
REM COMMENT "ExactAudioCopy v0.99pb5"
PERFORMER "Wolfgang Amadeus Mozart"
TITLE "Best Mozart 100 (CD 6)"
FILE "Wolfgang Amadeus Mozart - Best Mozart 100 (CD 6).flac" WAVE
  TRACK 01 AUDIO
    TITLE "Requiem in D minor K626 (ed. Beyer) - Introit: Requiem aeternam"
    PERFORMER "Wolfgang Amadeus Mozart"
    INDEX 01 00:00:00
  TRACK 02 AUDIO
    TITLE "Requiem in D minor K626 (ed. Beyer) - Kyrie"
    PERFORMER "Wolfgang Amadeus Mozart"
    INDEX 00 04:27:69
    INDEX 01 04:27:71
  TRACK 03 AUDIO
    TITLE "Requiem in D minor K626 (ed. Beyer) - Lacrimosa"
    PERFORMER "Wolfgang Amadeus Mozart"
    INDEX 00 07:00:63
    INDEX 01 07:02:24
  TRACK 04 AUDIO
    TITLE "Vesperae solennes de confessore K339"
    PERFORMER "Wolfgang Amadeus Mozart"
    INDEX 00 09:58:33
    INDEX 01 10:01:73
  TRACK 05 AUDIO
    TITLE "Ave verum corpus K618"
    PERFORMER "Wolfgang Amadeus Mozart"
    INDEX 00 15:28:54
    INDEX 01 15:31:20
  TRACK 06 AUDIO
    TITLE "Litanae lauretanae K195"
    PERFORMER "Wolfgang Amadeus Mozart"
    INDEX 00 18:55:03
    INDEX 01 18:57:70
  TRACK 07 AUDIO
    TITLE "Mass in C minor K427"
    PERFORMER "Wolfgang Amadeus Mozart"
    INDEX 00 25:18:42
    INDEX 01 25:22:34
  TRACK 08 AUDIO
    TITLE "Mass in C K317 'Coronation'"
    PERFORMER "Wolfgang Amadeus Mozart"
    INDEX 00 33:49:02
    INDEX 01 33:51:54
  TRACK 09 AUDIO
    TITLE "Exsultate, jubilate K165"
    PERFORMER "Wolfgang Amadeus Mozart"
    INDEX 00 37:04:44
    INDEX 01 37:08:35
  TRACK 10 AUDIO
    TITLE "Regina coeli K127"
    PERFORMER "Wolfgang Amadeus Mozart"
    INDEX 00 52:46:07
    INDEX 01 52:49:16
  TRACK 11 AUDIO
    TITLE "Sancta Maria, mater Dei K273"
    PERFORMER "Wolfgang Amadeus Mozart"
    INDEX 00 56:51:31
    INDEX 01 56:55:23
  TRACK 12 AUDIO
    TITLE "Betracht dies Herz K42"
    PERFORMER "Wolfgang Amadeus Mozart"
    INDEX 00 60:59:04
    INDEX 01 61:02:13
  TRACK 13 AUDIO
    TITLE "An die Freundschaft K125h"
    PERFORMER "Wolfgang Amadeus Mozart"
    INDEX 00 67:14:09
    INDEX 01 67:16:73
  TRACK 14 AUDIO
    TITLE "Die Zauberflцte"
    PERFORMER "Wolfgang Amadeus Mozart"
    INDEX 00 69:25:34
    INDEX 01 69:28:11

Об исполнителе (группе)

Вольфганг Амадей Моцарт — великий австрийский композитор и исполнитель-виртуоз, проявивший свои феноменальные способности в четырёхлетнем возрасте. Моцарт является одним из самых популярных классических композиторов, оказавшим глубокое влияние на дальнейшую западную музыкальную культуру. По свидетельству современников, Моцарт обладал феноменальным музыкальным слухом, памятью и способностью к импровизации.
--Не забываем говорить

Создавать темы 16-Сен-2015 17:05 (спустя 18 часов)

Благодарю. С удовольствием на досуге послушаю, да и соседи, видимо, тоже.
Яндекс.Метрика
Рейтинг@Mail.ru