Discovery: Плутон: первая встреча / Direct from Pluto-The First Encounter (Shelley Ayres) [2015 г., Документальный, научно-популярный, HDTVRip 720p]

 

Создавать темы 15-Сен-2015 21:31

Discovery: Плутон: первая встреча / Direct from Pluto-The First Encounter- Год выпуска: 2015
Страна: США, Exploration Production Inc., Bell Media
Жанр: Документальный, научно-популярный
Продолжительность: 00:43:52
Перевод: Профессиональный (одноголосый), озвучено на студии "Кирилица", текст читал Павел Кипнис
Режиссер: Shelley Ayres
В ролях: Дэн Рискин, Фран Бэйджнал, Alice Bowman, Alan Boyle, Майк Браун, Marc Buie, Steve Conrad, Дэн Дарда, Glen Fountain, Джим Грин-Описание:- "... Три, два, один ... Люди в восторге. Только посмотрите на снимки. Это поверхность Плутона, которую, до сих пор, мы могли только воображать. А сделаны эти снимки невероятно маленьким космическим аппаратом...." Эти слова Дена Рискина прозвучали из города Лорел, штат Мэриленд, где работали величайшие умы NASA и после стольких трудов их усилия увенчались успехом. В 2006 году аппарат Новые горизонты отправился к неизвестной, малоизученной и неоднозначной 9-й планете нашей Солнечной системы, планете - Плутон. Путешествие длиной в десятилетие с уникальным оборудованием на самый край Солнечной системы. С чем столкнулись разработчики уникального проекта во время этой космической эпопеи и какие открытия ожидали их на этом пути?
Этот фильм - рассказ о карликовой, ранее известной как девятая, планете - Плутон. Возможно, все, что было известно о ней раньше, придется пересмотреть.
-Доп. информация:
Сценарий: Shelley Ayres
Продюсер: Shelley Ayres, Cindy Bahadur, Clare Dewitt
Монтаж: Даррен Оливер
Премьера: 15 июля 2015-Качество: HDTVRip 720p
Формат: MKV
Видео кодек: H.264
Аудио кодек: AC3
Видео: 1280x720 29.970 fps 3500 Kbps
Аудио: AC3 2ch, 48kHz, 192 kbps

MediaInfo

Format : Matroska
Format version : Version 4 / Version 2
File size : 1.13 GiB
Duration : 43mn 51s
Overall bit rate mode : Variable
Overall bit rate : 3 694 Kbps
Encoded date : UTC 2015-09-15 18:37:30
Writing application : mkvmerge v8.3.0 ('Over the Horizon') 64bit
Writing library : libebml v1.3.1 + libmatroska v1.4.2
DURATION : 00:43:51.661000000
NUMBER_OF_FRAMES : 78871
NUMBER_OF_BYTES : 1151414868
_STATISTICS_WRITING_APP : mkvmerge v8.3.0 ('Over the Horizon') 64bit
_STATISTICS_WRITING_DATE_UTC : 2015-09-15 18:37:30
_STATISTICS_TAGS : BPS DURATION NUMBER_OF_FRAMES NUMBER_OF_BYTES
Video
ID : 1
Format : AVC
Format/Info : Advanced Video Codec
Format profile : [email protected]
Format settings, CABAC : Yes
Format settings, ReFrames : 3 frames
Codec ID : V_MPEG4/ISO/AVC
Duration : 43mn 51s
Bit rate mode : Variable
Bit rate : 3 500 Kbps
Maximum bit rate : 33.5 Mbps
Width : 1 280 pixels
Height : 720 pixels
Display aspect ratio : 16:9
Frame rate mode : Constant
Frame rate : 30.000 fps
Original frame rate : 29.970 fps
Standard : NTSC
Color space : YUV
Chroma subsampling : 4:2:0
Bit depth : 8 bits
Scan type : Progressive
Bits/(Pixel*Frame) : 0.127
Stream size : 1.05 GiB (93%)
Writing library : x264 core 114
Encoding settings : cabac=1 / ref=3 / deblock=1:0:0 / analyse=0x3:0x113 / me=hex / subme=7 / psy=1 / psy_rd=1.00:0.00 / mixed_ref=1 / me_range=16 / chroma_me=1 / trellis=1 / 8x8dct=1 / cqm=2 / deadzone=21,11 / fast_pskip=1 / chroma_qp_offset=-4 / threads=6 / sliced_threads=0 / slices=1 / nr=0 / decimate=1 / interlaced=0 / constrained_intra=0 / bframes=3 / b_pyramid=0 / b_adapt=1 / b_bias=0 / direct=1 / weightb=1 / open_gop=0 / weightp=2 / keyint=250 / keyint_min=25 / scenecut=40 / intra_refresh=0 / rc_lookahead=40 / rc=2pass / mbtree=1 / bitrate=3500 / ratetol=1.0 / qcomp=0.60 / qpmin=5 / qpmax=69 / qpstep=4 / cplxblur=20.0 / qblur=0.5 / vbv_maxrate=33500 / vbv_bufsize=33488 / nal_hrd=vbr / ip_ratio=1.40 / aq=1:1.00
Default : Yes
Forced : No
Color primaries : BT.709
Transfer characteristics : BT.709
Matrix coefficients : BT.709
Color range : Limited
Audio
ID : 2
Format : AC-3
Format/Info : Audio Coding 3
Mode extension : CM (complete main)
Format settings, Endianness : Big
Codec ID : A_AC3
Duration : 43mn 51s
Bit rate mode : Constant
Bit rate : 192 Kbps
Channel(s) : 2 channels
Channel positions : Front: L R
Sampling rate : 48.0 KHz
Bit depth : 16 bits
Compression mode : Lossy
Stream size : 60.2 MiB (5%)
Default : Yes
Forced : No
-Скриншоты--Время раздачи: 24/7 (круглосуточно)
Яндекс.Метрика
Рейтинг@Mail.ru