[ Сегодня на трекере фрилич! Идет свободное скачивание без начисления Download ]

Deep Purple - Heavy Metal Pioneers (1991) DVDRip [H.264]

 

Создавать темы 15-Сен-2015 15:30

-Deep Purple - Heavy Metal Pioneers (1991) DVDRip [H.264]- Год выпуска: 1991
Жанр: Rock, Документальный, Концерт
Перевoд: Одноголосый закадровый
Продолжительность: 00:57:39
Язык: Русский и Английский
Язык субтитрoв: Английский
Вид субтитров: Вшитые
Рeжиссер: Paul Justman
Участвуют: Blackmore/Gillan/Glover/Lord/Paice/Evans/Joe South/Coverdale/Turner-Описание :-Один из наиболее интересных документальных фильмов для поклонников хард-рока, в котором показана история культовой группы глазами клавишника Джона Лорда, ударника Яна Пейса и бас-гитариста Роджера Гловера, память которых хранит как официоз, так и неподдельные рокерские анекдоты из гастрольной жизни "Deep Purple". Свой вклад в рассказ вносит и Джо Линн Тернер, чье появление в составе "Deep Purple" было воспринято неоднозначно как поклонниками группы, так и музыкальными критиками. В фильм вошли фрагменты раритетного видео из архива группы, как, например, прекрасно снятое выступление Блэкмора на легендарном California Jam в 1974 году или же выступление на телевидении в США в 1968 году с песней "Hush" - вот они - частички истории хард-рока-Видеокодек: MPEG-4 AVC/H.264
Битрейт видео: ~1599 kbps, 29,970 fps
Размер кадра: 704x480 (4:3),
Качество видео: DVDRip
Аудиокодек: AC3 2.0
Аудио #1: Английский, 448 kbps, 48 Khz, 2 ch
Аудио #1: Русский, 224 kbps, 48 Khz, 2 ch

Треклист:

01 Woman From Tokyo
02 Hush (Playboy Dark 1968)
03 Speed King (Granada Television 1970)
04 Black Night (Denmarks Radio 1972)
05 Child In Time (Granada Television 1970)
06 Strange Kind Of Woman (Denmarks Radio 1972)
07 Smoke On The Water (California Jam)
08 Highway Star (Denmarks Radio 1972)
09 Burn (California Jam)
10 Stormbringer (Warner Brothers Records 1074)
11 Perfect Stranger (WDR TV 1985)
12 King Of Dreams (CLIP 1991)

MediaInfo

Уникальный идентификатор                 : 186502364376212441119922378016397733541 (0x8C4F0C7FCD875FCCA888A7D7A5202EA5)
Полное имя                               : Z:\Концерты\Deep.Purple.Heavy.Metal.Pioneers.1991.DVDRip.x264.drony.mkv
Формат                                   : Matroska
Версия формата                           : Version 2
Размер файла                             : 951 Мбайт
Продолжительность                        : 57 м.
Режим общего битрейта                    : Переменный
Общий поток                              : 2305 Кбит/сек
Дата кодирования                         : UTC 2012-06-30 15:07:10
Программа кодирования                    : mkvmerge v5.6.0 ('Kenya Kane') built on May 27 2012 16:44:04
Библиотека кодирования                   : libebml v1.2.3 + libmatroska v1.3.0
Видео
Идентификатор                            : 1
Формат                                   : AVC
Формат/Информация                        : Advanced Video Codec
Профиль формата                          : [url=mailto:[email protected]][email protected][/url]
Параметр CABAC формата                   : Да
Параметр ReFrames формата                : 3 кадра
Идентификатор кодека                     : V_MPEG4/ISO/AVC
Продолжительность                        : 57 м.
Вид битрейта                             : Переменный
Битрейт                                  : 1599 Кбит/сек
Максимальный битрейт                     : 40,0 Мбит/сек
Ширина                                   : 704 пикселя
Высота                                   : 480 пикселей
Соотношение сторон                       : 4:3
Режим частоты кадров                     : Постоянный
Частота кадров                           : 29,970 кадров/сек
Стандарт вещания                         : NTSC
Цветовое пространство                    : YUV
Субдискретизация насыщенности            : 4:2:0
Битовая глубина                          : 8 бит
Тип развёртки                            : Прогрессивная
Бит/(Пиксели*Кадры)                      : 0.158
Размер потока                            : 641 Мбайт (67%)
Заголовок                                : drony
Библиотека кодирования                   : x264 core 125 r2200 999b753
Настройки программы                      : cabac=1 / ref=4 / deblock=1:0:0 / analyse=0x3:0x113 / me=hex / subme=7 / psy=1 / psy_rd=1.00:0.00 / mixed_ref=1 / me_range=16 / chroma_me=1 / trellis=1 / 8x8dct=1 / cqm=0 / deadzone=21,11 / fast_pskip=1 / chroma_qp_offset=-2 / threads=3 / lookahead_threads=1 / sliced_threads=0 / slices=4 / nr=0 / decimate=1 / interlaced=0 / bluray_compat=1 / constrained_intra=0 / bframes=3 / b_pyramid=1 / b_adapt=1 / b_bias=0 / direct=1 / weightb=1 / open_gop=1 / weightp=0 / keyint=36 / keyint_min=1 / scenecut=40 / intra_refresh=0 / rc_lookahead=36 / rc=2pass / mbtree=1 / bitrate=1599 / ratetol=1.0 / qcomp=0.60 / qpmin=0 / qpmax=69 / qpstep=4 / cplxblur=20.0 / qblur=0.5 / vbv_maxrate=40000 / vbv_bufsize=30000 / nal_hrd=vbr / ip_ratio=1.40 / aq=1:1.00
Язык                                     : English
Default                                  : Да
Forced                                   : Нет
Основные цвета                           : BT.601 NTSC
Характеристики трансфера                 : BT.601
Коэффициенты матрицы                     : BT.601
Аудио #1
Идентификатор                            : 2
Формат                                   : AC-3
Формат/Информация                        : Audio Coding 3
Расширение режима                        : CM (complete main)
Параметр Endianness формата              : Big
Идентификатор кодека                     : A_AC3
Продолжительность                        : 57 м.
Вид битрейта                             : Постоянный
Битрейт                                  : 448 Кбит/сек
Каналы                                   : 2 канала
Расположение каналов                     : Front: L R
Частота                                  : 48,0 КГц
Битовая глубина                          : 16 бит
Метод сжатия                             : С потерями
Размер потока                            : 185 Мбайт (19%)
Заголовок                                : AC3 448 kbps 48K 2ch
Язык                                     : English
Default                                  : Да
Forced                                   : Нет
Аудио #2
Идентификатор                            : 3
Формат                                   : AC-3
Формат/Информация                        : Audio Coding 3
Расширение режима                        : CM (complete main)
Параметр Endianness формата              : Big
Идентификатор кодека                     : A_AC3
Продолжительность                        : 57 м.
Вид битрейта                             : Постоянный
Битрейт                                  : 256 Кбит/сек
Каналы                                   : 2 канала
Расположение каналов                     : Front: L R
Частота                                  : 48,0 КГц
Битовая глубина                          : 16 бит
Метод сжатия                             : С потерями
Размер потока                            : 106 Мбайт (11%)
Заголовок                                : AC3 224 kbps 48K 2ch
Язык                                     : Russian
Default                                  : Нет
Forced                                   : Нет
Текст
Идентификатор                            : 4
Формат                                   : VobSub
Режим смешивания                         : zlib
Идентификатор кодека                     : S_VOBSUB
Идентификатор кодека/Информация          : The same subtitle format used on DVDs
Язык                                     : English
Default                                  : Нет
Forced                                   : Нет
Меню
00:00:00.000                             : en:01 Woman From Tokyo
00:08:05.767                             : en:02 Hush (Playboy Dark 1968)
00:14:42.234                             : en:03 Speed King (Granada Television 1970)
00:16:01.935                             : en:04 Black Night (Denmarks Radio 1972)
00:18:42.803                             : en:05 Child In Time (Granada Television 1970)
00:21:15.771                             : en:06 Strange Kind Of Woman (Denmarks Radio 1972)
00:26:24.338                             : en:07 Smoke On The Water (California Jam)
00:32:18.939                             : en:08 Highway Star (Denmarks Radio 1972)
00:39:54.339                             : en:09 Burn (California Jam)
00:46:57.539                             : en:10 Stormbringer (Warner Brothers Records 1074)
00:50:17.473                             : en:11 Perfect Stranger (WDR TV 1985)
00:54:20.940                             : en:12 King Of Dreams (CLIP 1991)
-Скриншоты--Время раздачи: 24/7 (круглосуточно)-
Яндекс.Метрика
Рейтинг@Mail.ru