[ Сегодня на трекере фрилич! Идет свободное скачивание без начисления Download ]

Da Vinci Learning: Формат 21 / NZZ Format [серии 1-24 из ...] (Gabriela Neuhays, Basil Gelpke, Ursula Bishof Scherer, Beat Rauch) [2006 г., Документальный, наука, изобретения, инновационные технологии, SATRip]

 

Создавать темы 14-Сен-2015 17:54

-Da Vinci Learning: Формат 21 / NZZ Format [серии 1-24 из ...]- Год выпуска: 2006
Страна: Германия, NZZ
Жанр: Документальный, наука, изобретения, инновационные технологии
Продолжительность: 24x~00:30:39
Перевод: Профессиональный (двухголосый)
Режиссер: Gabriela Neuhays, Basil Gelpke, Ursula Bishof Scherer, Beat Rauch-Описание:
Этот документальный сериал поможет нам глубже заглянуть в различные отрасли строительства, архитектуры, дизайна, медицины, промышленности. Мы познакомимся с новыми изобретениями и технологиями, а также побываем на крупнейших промышленных предприятиях мира. Вспомним историю и заглянем в будущее.-

Список серий:


Альпийская железная дорога
Горная железная дорога в Альпах - гордость инженеров и местных жителей, излюбленный аттракцион для туристов.
Английские спортивные автомобили. Астон Мартин & Co.
Англия - страна богатых традиций производства спортивных автомобилей.
Ванная. Личное пространство или оазис комфорта?
Ванная комната перестала быть местом, где можно просто смыть грязь и освежиться. Теперь это средоточие комфорта.
Верблюды
Верблюды становятся все важнее по мере учащения случаев засухи и роста населения.
Долгожители Сардинии
Группа ученых изучает феномен долголетия.
Классические автомобили. Лучшие автомобили всех времён
В 1929 году автолюбители впервые собрались на озере Комо, чтобы выбрать самый элегантный автомобиль года...
Кошки
Исследования доказали, что кошки могут облегчить и даже вылечить депрессию. Но им тоже нужна забота.
Латекс. Ценный сок каучукового дерева
Латекс, сок дерева гевеи, дает натуральный каучук, которому нет равных по прочности и упругости.
Лошади. Понимать лошадей
Чтобы понять лошадей, нужно изучить их естественное поведение. Исследования позволили усовершенствовать методы разведения лошадей.
Мазерати & Co. Итальянские автомобили мечты
Maserati, Ferrari, Lamborghini - автомобили мечты. Их производят вокруг итальянского города Модена.
Мечта Прованса
Прованс всегда живет в мечтах людей. Мы увидим, как исполняются мечты некоторых из них.
Небоскребы
Чикаго, родина современного небоскреба, считается законодателем мод в области высотного строительства.
Паровые машины
Паровой двигатель дал нам большое количество доступной энергии и открыл дорогу крупным заводам и механизированному сельскому хозяйству.
Пряности
Никакая другая пища не оказала такого влияния на историю человечества, как пряности.
Роботы. Искусственный интеллект
Мы еще далеки от создания роботов, которые могли бы активно взаимодействовать с окружающей средой.
Рыбалка
Для одних рыбалка - отличный способ расслабиться и отдохнуть, для других это волнение, приключения, состязание с природой.
Собаки
Из-за нового закона приюты оказались переполнены собаками, от которых пришлось отказаться хозяевам
Солнце. Энергия будущего и двигатель экономики
Солнечная энергия - самая эффективная и рентабельная. Благодаря солнечным электростанциям энергию можно получать даже в пустыне.
Сон. Источник сил
Качество сна влияет на качество жизни. Чтобы быть активными, нам нужен хороший, спокойный сон. Но стресс и заботы часто лишают нас его.
Строительные машины-гиганты
Сегодняшние строительные машины могут проложить линии передач, не роя траншею, прямо под . А краны бросают вызов законам гравитации.
Супервулканы
В 1980-м году произошло страшное извержение Святой Елены. Вулканологи полагают, что крупное извержение Мерапи неизбежно.
Фобии
Страх может парализовать, но может и вдохновить. Что происходит в мозгу, когда мы испытываем страх, и как он защищает от опасности?
Этикет. Правила хорошего тона
Правила этикета - этот наш способ устанавливать связь с окружающими. Но часто они противоречат нашим истинным чувствам.
Ядовитые животные. Утончённые убийцы
Ядовитые животные одновременно пугают и завораживают. Причем количество ядовитых видов оказалось намного больше, чем считалось раньше.
-Качество: SATRip
Формат: AVI
Видео кодек: XviD
Аудио кодек: AC3
Видео: 704x400 25fps ~1800 Kbps
Аудио: AC3 2ch, 48kHz, 192 kbps-

Ожидаются:

Пицца
Неаполь - родина настоящей пиццы. Но, по мнению специалистов, лучшую пиццу сейчас готовят японцы!
Бамбук - суперволокно
Бамбуковое волокно обладает уникальной гибкостью и прочностью стали. Из него можно строить дешевые и устойчивые к землетрясениям .
Обувь
Рене Каовилла - маэстро вечерней обуви. Некоторые из его творений красуются в Музее современного искусства в Нью-Йорке.
Парфюм
Кто из нас не мечтал иметь свой собственный уникальный парфюм? Его можно найти во Флоренции.
Терапия животными
Животные могут облегчить состояние больных, наладить контакт с пациентами, страдающими психическими и неврологическими расстройствами.
-Добавлено-Рыбалка, Кошки, Мечта Прованса, Небоскребы-NZZ Format - Das Fernsehen der Neuen Zuercher Zeitung-

MediaInfo:

Format : AVI
Format/Info : Audio Video Interleave
File size : 436 MiB
Duration : 30mn 39s
Overall bit rate : 1 989 Kbps
Writing application : TMPGEnc Video Mastering Works 5 Version. 5.0.6.38
Writing library : TMPGEnc Video Mastering Works 5 Version. 5.0.6.38
Video
ID : 0
Format : MPEG-4 Visual
Format profile : Advanced [email protected]
Format settings, BVOP : 2
Format settings, QPel : No
Format settings, GMC : No warppoints
Format settings, Matrix : Default (H.263)
Muxing mode : Packed bitstream
Codec ID : XVID
Codec ID/Hint : XviD
Duration : 30mn 39s
Bit rate : 1 789 Kbps
Width : 704 pixels
Height : 400 pixels
Display aspect ratio : 16:9
Frame rate : 25.000 fps
Color space : YUV
Chroma subsampling : 4:2:0
Bit depth : 8 bits
Scan type : Progressive
Compression mode : Lossy
Bits/(Pixel*Frame) : 0.254
Stream size : 392 MiB (90%)
Writing library : XviD 73
Audio
ID : 1
Format : AC-3
Format/Info : Audio Coding 3
Mode extension : CM (complete main)
Format settings, Endianness : Big
Codec ID : 2000
Duration : 30mn 38s
Bit rate mode : Constant
Bit rate : 192 Kbps
Channel(s) : 2 channels
Channel positions : Front: L R
Sampling rate : 48.0 KHz
Bit depth : 16 bits
Compression mode : Lossy
Stream size : 42.1 MiB (10%)
Alignment : Aligned on interleaves
Interleave, duration : 240 ms (6.00 video frames)
Interleave, preload duration : 224 ms
-

Внимание:

Раздача ведётся путём добавления новых серий; при каждом добавлении создаётся новый торрент. Чтобы начать докачку новой серии, пользователям необходимо сделать следующее:
- Остановить скачивание.
- Удалить старый торрент у себя из клиента (старые серии удалять не надо).
- Скачать новый торрент и запустить его у себя в клиенте вместо старого, при этом указать клиенту путь в старую папку куда и должно происходить скачивание новых серий
-Скриншоты--Благодарность за предоставленный рип: -Время раздачи: 24/7 (круглосуточно)-
Яндекс.Метрика
Рейтинг@Mail.ru