Нинкина любовь (2015,Мелодрама) HDTVRip

 

Создавать темы 13-Сен-2015 18:47

-Нинкина любовь (2015) HDTVRip-Информация о фильме
Название: Нинкина любовь
Год выхода: 2015-Жанр: Мелодрама-Режиссер: Игорь Перин-В ролях: Любовь Баханкова, Илья Алексеев, Илья Соколовский, Людмила Гаврилова, Василий Кортуков, Андрей Булатов-О фильме:
Нина всю себя посвятила младшей сестре. На собственную любовь и счастье времени не хватило. Жизнь ее скучна и однообразна. Но судьба приготовила на Нинкину долю много приключений и переживаний. Совсем скоро в ее жизни появятся двое мужчин, и далеко не сразу Нина поймет, кто из них ее настоящая любовь…--Страна: Россия
Студия: Кинокомпания Русское
Продолжительность: 01:31:51
Перевод: Не требуется
Файл
Кодек: XviD
Качество: HDTVRip
Видео: 624x352 (1.77:1), 25 fps, XviD build 73 ~996 kbps avg, 0.18 bit/pixel
Звук: 48 kHz, MPEG Layer 3, 2 ch, ~128.00 kbps avg
Субтитры: Отсутствуют

MI

General
Complete name : D:ТоррентыМои рипыНинкина любовьNinkina.lyubov.2015.HDTVRip.shkiper.avi
Format : AVI
Format/Info : Audio Video Interleave
File size : 745 MiB
Duration : 1h 31mn
Overall bit rate : 1 135 Kbps
Writing application : VirtualDubMod 1.5.10.3 | www.virtualdub-fr.org || (build 2550/release)
Writing library : VirtualDubMod build 2550/release
Video
ID : 0
Format : MPEG-4 Visual
Format profile : Advanced [email protected]
Format settings, BVOP : 1
Format settings, QPel : No
Format settings, GMC : No warppoints
Format settings, Matrix : Custom
Codec ID : XVID
Codec ID/Hint : XviD
Duration : 1h 31mn
Bit rate : 997 Kbps
Width : 624 pixels
Height : 352 pixels
Display aspect ratio : 16:9
Frame rate : 25.000 fps
Color space : YUV
Chroma subsampling : 4:2:0
Bit depth : 8 bits
Scan type : Progressive
Compression mode : Lossy
Bits/(Pixel*Frame) : 0.182
Stream size : 655 MiB (88%)
Writing library : XviD 73
Audio
ID : 1
Format : MPEG Audio
Format version : Version 1
Format profile : Layer 3
Mode : Joint stereo
Mode extension : MS Stereo
Codec ID : 55
Codec ID/Hint : MP3
Duration : 1h 31mn
Bit rate mode : Constant
Bit rate : 128 Kbps
Channel(s) : 2 channels
Sampling rate : 48.0 KHz
Compression mode : Lossy
Stream size : 84.1 MiB (11%)
Alignment : Aligned on interleaves
Interleave, duration : 40 ms (1.00 video frame)
Interleave, preload duration : 504 ms
Writing library : LAME3.99r
Encoding settings : -m j -V 4 -q 2 -lowpass 17 -b 128

Скриншоты

Яндекс.Метрика
Рейтинг@Mail.ru