BBC: Постигая звёздное небо / Stargazing Live [сезон 4 серия 1- 3 из 3]

 

Создавать темы 13-Сен-2015 07:53

BBC: Постигая звёздное небо / Stargazing Live [сезон 4 серия 1- 3 из 3]- Год выпуска: 2014
Страна: Великобритания, BBC
Жанр: Документальный, научно-познавательный, космос
Продолжительность: 3x~00:48:12
Перевод: Профессиональный (двухголосый), компания "Видеофильм ТВ"
Режисер: Jan Russell
В ролях: ведущие - Brian Cox, Dara O'Briain
Участники: Лиз Бонин, Марк Томпсон-Описание: -Такое огромное, бескрайнее и глубокое небо. Миллионы лет миллиарды глаз смотрят вверх и пытаются разгадать, что же там, и почему нас туда так тянет. Дара О'Бриэн и профессор Брайан Кокс приглашают нас в космическое путешествие - наше удивительную ночное небо.-Список серий
01. На этот раз команда взялась за изучение удивительной задачи - заснять на камеру одно из лучших явлений в Солнечной системе - таинственное и неуловимое северное сияние. Лиз Бонин ведёт в прямом эфире из за Полярного круга репортажи с учёными и исследователями в северной Норвегии, которые помогут ей разгадать тайны этого великолепного зрелища.
Брайан и Дара дадут самые последние сообщения о погоде по всей Солнечной системе. Что происходит на Меркурии, Марсе, Венере? Полюбуемся на кольца и гигантские штормы Сатурна, поближе познакомимся с Нептуном и Юпитером и что скрывают шестиугольные облака, присланные зондом Cassini. Научимся смотреть на Солнце и попробуем отыскать скрытые галактики.
02. Лиз Бонин продолжает своё пребывание в Норвегии где на высоту 9000 метров будет отправлена камера для получения идеальной картинки северного сияния. В гостях у ведущих побывает командир МКС и пилот одного из экипажей Аполлона. Дара О'Бриэн примет участие в подготовке космонавтов, а Брайан Кокс познакомит нас с работами над секретными материалами программы "Орион" и расскажет какие перспективы в создании двигателей.
03. На этот раз в гостях у ведущих побывает ведущий ученый по составлению карты Млечного пути, Лиз Бонин продолжает свою погоню за северным сиянием, а Марк Томпсон даст нам советы о том, как ориентироваться по звёздному небу. Дара О'Бриэн продолжит подготовку к космическим путешествиям, а также мы узнаем как удалось смоделировать атмосферу планеты, которая находится от нас на расстоянии 63 св.года и которую вряд ли кто сможет увидеть.
-Качество: SATRip
Контейнер: AVI
Видео кодек: XviD
Аудио кодек: AC3
Видео: 720x400 25fps 1800kbps
Аудио: AC3 2ch, 48kHz, 192 kbps-BBC: Постигая звёздное небо / Stargazing Live [сезон 3 серия 1-3 из 3]
BBC: Постигая звёздное небо / Stargazing Live [сезон 4 серия 1-3 из 3]-

MediaInfo

Format : AVI
Format/Info : Audio Video Interleave
File size : 689 MiB
Duration : 48mn 12s
Overall bit rate : 1 998 Kbps
Writing application : TMPGEnc Video Mastering Works 5 Version. 5.0.6.38
Writing library : TMPGEnc Video Mastering Works 5 Version. 5.0.6.38
Video
ID : 0
Format : MPEG-4 Visual
Format profile : Advanced [email protected]
Format settings, BVOP : 2
Format settings, QPel : No
Format settings, GMC : No warppoints
Format settings, Matrix : Default (H.263)
Muxing mode : Packed bitstream
Codec ID : XVID
Codec ID/Hint : XviD
Duration : 48mn 12s
Bit rate : 1 798 Kbps
Width : 720 pixels
Height : 400 pixels
Display aspect ratio : 16:9
Frame rate : 25.000 fps
Color space : YUV
Chroma subsampling : 4:2:0
Bit depth : 8 bits
Scan type : Progressive
Compression mode : Lossy
Bits/(Pixel*Frame) : 0.250
Stream size : 620 MiB (90%)
Writing library : XviD 73
Audio
ID : 1
Format : AC-3
Format/Info : Audio Coding 3
Mode extension : CM (complete main)
Format settings, Endianness : Big
Codec ID : 2000
Duration : 48mn 12s
Bit rate mode : Constant
Bit rate : 192 Kbps
Channel(s) : 2 channels
Channel positions : Front: L R
Sampling rate : 48.0 KHz
Compression mode : Lossy
Stream size : 66.2 MiB (10%)
Alignment : Aligned on interleaves
Interleave, duration : 240 ms (6.00 video frames)
Interleave, preload duration : 224 ms
-Скриншоты--Время раздачи: 24/7 (круглосуточно)
Яндекс.Метрика
Рейтинг@Mail.ru