[ Сегодня на трекере фрилич! Идет свободное скачивание без начисления Download ]

Не бойся, я с тобой! (1981 мюзикл, боевик, мелодрама, комедия, приключения DVDRip) от New-Team

 

Создавать темы 17-Дек-2013 17:07

Страна: СССР
Производство: Азербайджанфильм
Жанр: мюзикл, боевик, мелодрама, комедия, приключения
Год выпуска: 1981
Продолжительность: 02:24:10
Перевод: не требуется
Оригинальная аудиодорожка: русский
Cубтитры: нет
Режиссер: Юлий Гусман
В ролях:
Мухтарбек Кантемиров, Полад Бюль-бюль оглы, Лев Дуров, Гамида Омарова, Гасанага Турабов, Сергей Юрский, Мирза Бабаев, Александр Шаровский, Мухтар Маниев, Кязим Абдуллаев...
Описание:
Начало XX века. Российская империя, Азербайджан. Двое цирковых актеров, Сан Саныч (Лев Дуров) и Рустам, приезжают на родину Рустама, узнав о болезни его бабушки. В ожидании лошадей, которые отвезут их в деревню Рустама, друзья идут в местный театр, где из-за папахи местного бандита Джафара (большого любителя музыки) у них с бандитом происходит стычка, за которую Джафар решает отомстить. По дороге в деревню за друзьями гонятся бандиты. Оторваться удаётся, лишь разрушив мост через бурную речку. Увидеть бабушку живой Рустаму не удаётся — они успевают только на её похороны. Несмотря на то, что на дворе уже почти XX век, и различные новшества добрались даже сюда, горцы живут старыми обычаями и порядками. Выясняется, что местные жители до сих пор помнят, как Рустам «не отомстил и сбежал как трус» — отказался следовать обычаю кровной мести и не стал убивать своего кровника...-
Исходник: DVD9 R5
Тип релиза: DVDRip
Контейнер: AVI
Видео: 704x528 (4:3), 25 fps, XviD ~ 1308 kbps avg, 0.141 bit/pixel
Аудио: 48 kHz, MP3 2.0, 128 kbps

MediaInfo

Общее
Полное имя : Ne.boysya.ya.s.toboy.1981.DVDRip-1,46_[New-team]_by_AVP_Studio.avi
Формат : AVI
Формат/Информация : Audio Video Interleave
Размер файла : 1,46 Гбайт
Продолжительность : 2 ч. 24 м.
Общий поток : 1446 Кбит/сек
Программа кодирования : VirtualDubModRus 1.5.10.2 (build 2542/release)
Библиотека кодирования : VirtualDubMod build 2542/release
Видео
Идентификатор : 0
Формат : MPEG-4 Visual
Профиль формата : Advanced [email protected]
Параметр BVOP формата : 1
Параметр QPel формата : Нет
Параметр GMC формата : Без точки перехода
Параметр матрицы формата : Выборочная
Идентификатор кодека : XVID
Идентификатор кодека/Подсказка : XviD
Продолжительность : 2 ч. 24 м.
Битрейт : 1308 Кбит/сек
Ширина : 704 пикселя
Высота : 528 пикселей
Соотношение сторон : 4:3
Частота кадров : 25,000 кадров/сек
Цветовое пространство : YUV
Субдискретизация насыщенности : 4:2:0
Битовая глубина : 8 бит
Тип развёртки : Прогрессивная
Метод сжатия : С потерями
Бит/(Пиксели*Кадры) : 0.141
Размер потока : 1,32 Гбайт (90%)
Библиотека кодирования : XviD 73
Аудио
Идентификатор : 1
Формат : MPEG Audio
Версия формата : Version 1
Профиль формата : Layer 3
Идентификатор кодека : 55
Идентификатор кодека/Подсказка : MP3
Продолжительность : 2 ч. 24 м.
Вид битрейта : Постоянный
Битрейт : 128 Кбит/сек
Каналы : 2 канала
Частота : 48,0 КГц
Метод сжатия : С потерями
Размер потока : 132 Мбайт (9%)
Выравнивание : Соединение по промежуткам
Продолжительность промежутка : 40 мс. (1,00 видеокадр)
Время предзагрузки промежутка : 504 мс.
Библиотека кодирования : LAME3.99r
Настройки программы : -m s -V 4 -q 2 -lowpass 17 -b 128

Скриншоты

Яндекс.Метрика
Рейтинг@Mail.ru