[ Сегодня на трекере фрилич! Идет свободное скачивание без начисления Download ]

Viasat History: Загадочные авиакатастрофы Второй Мировой войны / WW II: Air Crash Detectives [серии 1-6 из 6]

 

Создавать темы 12-Сен-2015 18:14

-Viasat History: Загадочные авиакатастрофы Второй Мировой войны / WW II: Air Crash Detectives- Год выпуска: 2014
Страна: Великобритания, WWII ACI Productions Ltd
Жанр: Документальный, авиация, исторический, исследование
Продолжительность: 6х ~ 00:44:01
Перевод: Профессиональный (одноголосый) - "SDI Media", перевод Геннадия Максимова, текст читала Виктория Бабанова
Режиссер: Джеймс Фловер-Описание:-Программа рассказывает о многочисленных случаях гибели пилотов во время Второй мировой войны, но не от рук врага, а в результате авиационных катастроф или несчастных случаев при обучении. Все они были чьими-то отцами, братьями и сыновьями, отправляли письма любимым и мечтали о возвращении домой. К сожалению, на фоне миллионов жертв их имена были преданы забвению. Однако существуют люди, которые не позволят записать имена забытых героев в конец длинного списка погибших. В этой передаче исследователи авиакатастроф отправляются на места крушения самолетов времен Второй мировой войны, чтобы попытаться объяснить причины гибели пилотов.-Список серий:-01. Последний полёт Сикорского / Sikorski's Last Flight
В этой серии исследователи авиакатастроф попытаются пролить свет на одну из нерешенных загадок Второй мировой войны и выяснить причины гибели польского генерала Владислава Сикорского.
02. Крушение B-25 на вершине горы Шарп-Топ / Lost And Confused - Sharp Top Mountain B25 Crash
В этой серии мы узнаем, что же на самом деле произошло холодной февральской ночью 1943 года, когда бомбардировщик B-25 Митчелл с пятью пилотами-стажерами на борту разбился о скалу в штате Вирджиния
03. Бейкер Крик: Самая трагическая авиакатастрофа Австралии / Australia's Worst Air Crash: Baker's Creek
В этой серии исследователи авиакатастроф попытаются восстановить события 14 июня 1943 года, когда во время крушения самолета в Бейкерс Крик, Австралия, погибли 40 солдат.
04. Трагедия в Тарвестоне: Смерть в лунном свете / The Turweston Crash: Death In The Moonlight
В этой серии рассказывается о молодых пилотах, которые трагически погибли во время подготовки к войне, обучаясь полетам на бомбардировщиках.
05. Нейпер 28: Смерть на Великих равнинах / Naper 28: Death On The Great Plains
В этой серии рассказывается о событиях 3 августа 1944, когда транспортный самолет C-47, пытаясь справиться с сильным штормом, разбился, унеся жизни 28 пассажиров и членов экипажа.
06. Заговор или случайность? Гибель герцога Кентского / Conspiracy or Confusion? The Duke Of Kent
В этой серии исследователи авиакатастроф попытаются пролить свет на загадочные обстоятельства гибели принца Георга, брата короля Георга VI.-Качество: SATRip
Формат: AVI
Видео кодек: XviD
Аудио кодек: AC3
Видео: 704x400 25fps 1800kbps
Аудио: AC3 2ch, 48kHz, 192 kbps

MediaInfo

Format : AVI
Format/Info : Audio Video Interleave
File size : 628 MiB
Duration : 44mn 1s
Overall bit rate : 1 993 Kbps
Writing application : TMPGEnc Video Mastering Works 5 Version. 5.0.6.38
Writing library : TMPGEnc Video Mastering Works 5 Version. 5.0.6.38
Video
ID : 0
Format : MPEG-4 Visual
Format profile : Advanced [email protected]
Format settings, BVOP : 2
Format settings, QPel : No
Format settings, GMC : No warppoints
Format settings, Matrix : Default (H.263)
Muxing mode : Packed bitstream
Codec ID : XVID
Codec ID/Hint : XviD
Duration : 44mn 1s
Bit rate : 1 794 Kbps
Width : 704 pixels
Height : 400 pixels
Display aspect ratio : 16:9
Frame rate : 25.000 fps
Color space : YUV
Chroma subsampling : 4:2:0
Bit depth : 8 bits
Scan type : Progressive
Compression mode : Lossy
Bits/(Pixel*Frame) : 0.255
Stream size : 565 MiB (90%)
Writing library : XviD 73
Audio
ID : 1
Format : AC-3
Format/Info : Audio Coding 3
Mode extension : CM (complete main)
Format settings, Endianness : Big
Codec ID : 2000
Duration : 44mn 0s
Bit rate mode : Constant
Bit rate : 192 Kbps
Channel(s) : 2 channels
Channel positions : Front: L R
Sampling rate : 48.0 KHz
Bit depth : 16 bits
Compression mode : Lossy
Stream size : 60.4 MiB (10%)
Alignment : Aligned on interleaves
Interleave, duration : 240 ms (6.00 video frames)
Interleave, preload duration : 224 ms
-Скриншоты--Время раздачи: 24/7 (круглосуточно)-
Яндекс.Метрика
Рейтинг@Mail.ru