[ Сегодня на трекере фрилич! Идет свободное скачивание без начисления Download ]

Viasat History: Викинги / Vikings [серии 1-5 из 5] (Paul Russell and Andrea Vogt) [2014 г., Документально-постановочный, история, исследования, SATRip]

 

Создавать темы 12-Сен-2015 12:44

-Viasat History: Викинги / Vikings [серии 1-5 из 5]- Год выпуска: 2014
Страна: Великобритания, Millstream Films and Media
Жанр: Документально-постановочный, история, исследования
Продолжительность: 5x~00:45:24
Перевод: Профессиональный (одноголосый), переведено и озвучено на студии "SDI Media" перевод Анны Заславской, текст читает Роман Антанович
Режиссер: Paul Russell and Andrea Vog-Описание:-Они безжалостно грабили и захватывали чужие земли, заселяли завоеванные страны и становились их правителями. Эти дерзкие и бесстрашные мореходы на востоке достигли границ Персии, а на западе – Нового Света. Они открыли новые торговые пути, которые используются до сих пор, основали такие города как Киев и Новгород, и захватили Йорк, Неаполь и Стамбул. Их главным средством передвижения, защиты и нападения был корабль, который тогда представлял собой великолепно оснащенную машину для убийств. Они также обладали лучшими мечами, обмундированием и использовали наиболее сложные и продуманные тактики захвата.
Мы проедем через всю Европу, включая Скандинавию, Россию, Польшу, Эстонию, Францию, Турцию, Исландию и Великобританию, чтобы вместе с экспертами раскрыть секреты быта этих отважных воинов, а также пролить свет на их историю. Благодаря данным, полученным из специальных лабораторий по изучению останков, мы узнаем подробности жизни викингов ранее неизвестные ученым.
Мы изучим навигационное оборудование, благодаря которому викинги добрались до Америки и Каспийского моря. Проследим за началом их захватнических походов, расцветом и закатом их цивилизации, чтобы лучше оценить неизгладимый след, оставленный ими в странах Европы, который долгие годы замалчивался многими историками.
На протяжении нескольких веков мы практически ничего не знали о жизни великих скандинавских мореходов. Наконец, пришло время раскрыть все карты.
-Список серий:-01. Рассвет эпохи / Viking Dawn
В этой серии рассказывается о загадочном происхождении викингов, их ранних завоеваниях, а также о человеческих жертвоприношениях и погребальных ритуалах.
02. Оружие викигов / Viking Weapons
У викингов были самые лучшие корабли, щиты, мечи и доспехи, они владели искусством ведения войны, как никто другой, что позволило им захватить огромные территории.
03. Захватчики и первооткрыватели / Raiders and Explorers
Новые археологические находки говорят о том, что викинги начали свои вторжения гораздо раньше, чем об этом упоминалось в летописях.
04. Викингские королевства / Viking Kingdoms
В этой серии рассказывается о том, каким образом викинги создавали свои могущественные королевства и правили огромными империями по всей Европе.
05. Дальше на восток / Eastern Promise
В этой серии рассказывается о продвижении викингов за пределы Польши, а также об их особых отношения с императором Константинополя.-Качество: SATRip
Формат: AVI
Видео кодек: XviD
Аудио кодек: AC3
Видео: 720x400 25fps 1800kbps
Аудио: AC3 2ch, 48kHz, 192 kbps

MediaInfo

Format : AVI
Format/Info : Audio Video Interleave
File size : 650 MiB
Duration : 45mn 24s
Overall bit rate : 2 002 Kbps
Writing application : VirtualDubMod 1.5.10.3 | www.virtualdub-fr.org || (build 2550/release)
Writing library : VirtualDubMod build 2550/release
Video
ID : 0
Format : MPEG-4 Visual
Format profile : Advanced [email protected]
Format settings, BVOP : 2
Format settings, QPel : Yes
Format settings, GMC : 3 warppoints
Format settings, Matrix : Default (H.263)
Codec ID : XVID
Codec ID/Hint : XviD
Duration : 45mn 24s
Bit rate : 1 800 Kbps
Width : 720 pixels
Height : 400 pixels
Display aspect ratio : 16:9
Frame rate : 25.000 fps
Color space : YUV
Chroma subsampling : 4:2:0
Bit depth : 8 bits
Scan type : Progressive
Compression mode : Lossy
Bits/(Pixel*Frame) : 0.250
Stream size : 584 MiB (90%)
Writing library : XviD 1.2.1 (UTC 2008-12-04)
Audio
ID : 1
Format : AC-3
Format/Info : Audio Coding 3
Mode extension : CM (complete main)
Format settings, Endianness : Big
Codec ID : 2000
Duration : 45mn 24s
Bit rate mode : Constant
Bit rate : 192 Kbps
Channel(s) : 2 channels
Channel positions : Front: L R
Sampling rate : 48.0 KHz
Compression mode : Lossy
Stream size : 62.4 MiB (10%)
Alignment : Split accross interleaves
Interleave, duration : 40 ms (1.00 video frame)
Interleave, preload duration : 500 ms
-Скриншоты--Время раздачи: 24/7 (круглосуточно)-
Яндекс.Метрика
Рейтинг@Mail.ru